<?xml version="1.0" standalone="no"?>
<!DOCTYPE svg PUBLIC "-//W3C//DTD SVG 1.1//EN" "http://www.w3.org/Graphics/SVG/1.1/DTD/svg11.dtd">
<svg xmlns="http://www.w3.org/2000/svg">
<metadata>Generated by Fontastic.me</metadata>
<defs>
<font id="untitled-font-3" horiz-adv-x="512">
<font-face font-family="untitled-font-3" units-per-em="512" ascent="480" descent="-32"/>
<missing-glyph horiz-adv-x="512" />

<glyph glyph-name="flag" unicode="&#110;" d="M38 26c-7 0-12 5-12 12l0 384c0 7 5 13 12 13 7 0 13-6 13-13l0-384c0-7-6-12-13-12z m52 230c-3 0-6 1-8 3-6 4-7 12-3 17 2 3 43 57 100 57 44 0 72-16 98-29 22-12 41-22 69-22 56 0 96 53 119 95-18-10-41-19-68-19-57 0-86 30-112 55-25 26-47 48-93 48-57 0-92-46-92-46-4-6-12-7-18-3-6 4-7 12-3 18 2 2 43 56 113 56 57 0 86-29 111-55 26-25 48-47 94-47 57 0 92 46 92 46 4 5 11 7 16 4 6-3 8-10 6-16 0-1-13-40-40-79-15-24-32-43-51-56-23-18-48-27-74-27-34 0-58 13-82 25-24 14-48 26-85 26-44 0-79-45-79-46-3-3-7-5-10-5z"/>
<glyph glyph-name="store" unicode="&#97;" d="M461 269l0 25c0 2-1 4-2 6l-51 103c-2 4-6 7-11 7l-307 0c-5 0-10-3-12-7l-51-103c-1-2-1-4-1-6l0-25c0-21 10-40 25-51l0-167-13 0c-7 0-12-6-12-13 0-7 5-12 12-12l410 0c7 0 13 5 13 12 0 7-6 13-13 13l-13 0 0 167c16 11 26 30 26 51z m-167-39c-21 0-38 18-38 39l0 13 77 0 0-13c0-21-17-39-39-39z m-243 39l0 13 77 0 0-13c0-21-17-39-38-39-22 0-39 18-39 39z m179 115l0-77-73 0 19 77z m80 0l19-77-73 0 0 77z m-156-102l76 0 0-13c0-21-17-39-38-39-21 0-38 18-38 39z m204 0l77 0 0-13c0-21-17-39-38-39-21 0-39 18-39 39z m69 25l-71 0-20 77 53 0z m-329 77l52 0-19-77-72 0z m-21-178c4-1 8-1 13-1 21 0 39 10 51 25 11-15 30-25 51-25 21 0 40 10 51 25 9-12 23-21 39-24l0-155-205 0 0 155z m333-155l-103 0 0 155c16 3 29 12 39 24 11-15 30-25 51-25 4 0 8 0 13 1l0-155z m-52 90c0-7-5-13-12-13-7 0-13 6-13 13 0 7 6 13 13 13 7 0 12-6 12-13z m-243-13c-3 0-6 1-9 4-5 5-5 13 0 18l26 25c5 5 13 5 18 0 5-5 5-13 0-18l-26-25c-2-3-6-4-9-4z m26-51c-3 0-7 1-9 4-5 5-5 13 0 18l77 76c5 5 13 5 18 0 5-5 5-13 0-18l-77-76c-3-3-6-4-9-4z m77 0c-4 0-7 1-9 4-5 5-5 13 0 18l25 25c5 5 13 5 18 0 5-5 5-13 0-18l-25-25c-3-3-6-4-9-4z"/>
<glyph glyph-name="smile" unicode="&#98;" d="M243 0c-65 0-126 25-172 71-46 46-71 107-71 172 0 65 25 126 71 172 46 46 107 71 172 71 65 0 126-25 172-71 46-46 71-107 71-172 0-65-25-126-71-172-46-46-107-71-172-71z m0 461c-120 0-217-98-217-218 0-120 97-217 217-217 120 0 218 97 218 217 0 120-98 218-218 218z m-77-154c-21 0-38 17-38 39 0 21 17 38 38 38 22 0 39-17 39-38 0-22-17-39-39-39z m0 51c-7 0-12-5-12-12 0-7 5-13 12-13 7 0 13 6 13 13 0 7-6 12-13 12z m154-51c-21 0-38 17-38 39 0 21 17 38 38 38 21 0 38-17 38-38 0-22-17-39-38-39z m0 51c-7 0-13-5-13-12 0-7 6-13 13-13 7 0 13 6 13 13 0 7-6 12-13 12z m-77-281c-92 0-166 74-166 166 0 7 6 13 13 13 7 0 12-6 12-13 0-77 64-141 141-141 78 0 141 64 141 141 0 7 6 13 13 13 7 0 13-6 13-13 0-92-75-166-167-166z"/>
<glyph glyph-name="smartphone" unicode="&#99;" d="M269 51l-26 0c-7 0-13 6-13 13 0 7 6 13 13 13l26 0c7 0 13-6 13-13 0-7-6-13-13-13z m102-51l-230 0c-21 0-39 17-39 38l0 436c0 21 18 38 39 38l230 0c21 0 39-17 39-38l0-436c0-21-18-38-39-38z m-230 486c-7 0-13-5-13-12l0-436c0-7 6-12 13-12l230 0c7 0 13 5 13 12l0 436c0 7-6 12-13 12z m205-384l-180 0c-7 0-12 6-12 13l0 333c0 7 5 13 12 13l180 0c7 0 12-6 12-13l0-333c0-7-5-13-12-13z m-167 26l154 0 0 307-154 0z"/>
<glyph glyph-name="music-note" unicode="&#100;" d="M507 483c-3 3-6 4-10 3l-282-51c-6-1-10-6-10-13l0-291c-4 2-8 4-12 6-21 11-49 17-78 17-29 0-57-6-78-17-24-12-37-29-37-47 0-19 13-36 37-48 21-11 49-16 78-16 29 0 57 5 78 16 24 12 37 29 37 48l0 258 256 47 0-213c-3 2-7 4-11 6-21 11-49 17-78 17-30 0-57-6-78-17-24-12-37-28-37-47 0-19 13-36 37-48 21-10 48-16 78-16 29 0 57 6 78 16 24 12 37 29 37 48l0 333c0 3-2 7-5 9z m-392-432c-51 0-89 20-89 39 0 18 38 38 89 38 51 0 90-20 90-38 0-19-39-39-90-39z m115 323l0 38 256 46 0-37z m167-272c-51 0-90 21-90 39 0 18 39 38 90 38 51 0 89-20 89-38 0-18-38-39-89-39z"/>
<glyph glyph-name="alarm" unicode="&#101;" d="M430 125c-29 22-46 56-46 93l0 76c0 65-43 119-102 136l0 18c0 21-18 38-39 38-21 0-38-17-38-38l0-18c-59-17-103-71-103-136l0-76c0-37-16-71-46-93-4-3-6-9-4-14 2-5 6-9 12-9l116 0c0-4-1-8-1-12 0-36 29-64 64-64 35 0 64 28 64 64 0 4 0 8-1 12l116 0c6 0 11 4 13 9 1 5-1 11-5 14z m-200 323c0 7 6 13 13 13 7 0 13-6 13-13l0-13c-4 0-8 0-13 0-4 0-8 0-13 0z m52-358c0-22-18-39-39-39-21 0-38 17-38 39 0 4 1 8 2 12l72 0c2-4 3-8 3-12z m-186 38c6 8 12 17 17 26 10 20 15 41 15 64l0 76c0 64 52 116 115 116 64 0 115-52 115-116l0-76c0-23 6-44 16-64 4-9 10-18 17-26l-295 0z"/>
<glyph glyph-name="apartment" unicode="&#102;" d="M358 358l26 0 0-25-26 0z m0-51l26 0 0-25-26 0z m0-51l26 0 0-26-26 0z m0-51l26 0 0-26-26 0z m0-103l26 0 0-25-26 0z m0 52l26 0 0-26-26 0z m-204 204l25 0 0-25-25 0z m0-51l25 0 0-25-25 0z m0-51l25 0 0-26-25 0z m0-51l25 0 0-26-25 0z m0-103l25 0 0-25-25 0z m0 52l25 0 0-26-25 0z m-52 204l26 0 0-25-26 0z m0-51l26 0 0-25-26 0z m0-51l26 0 0-26-26 0z m0-51l26 0 0-26-26 0z m0-103l26 0 0-25-26 0z m0 52l26 0 0-26-26 0z m103 204l25 0 0-25-25 0z m0-51l25 0 0-25-25 0z m0-51l25 0 0-26-25 0z m0-51l25 0 0-26-25 0z m0-103l25 0 0-25-25 0z m0 52l25 0 0-26-25 0z m269-128l-13 0 0 345c0 20-15 40-33 46l-121 40 0 42c0 4-2 8-5 10-3 3-7 4-11 2l-232-69c-19-6-33-25-33-45l0-371-13 0c-7 0-13-6-13-13 0-7 6-13 13-13l461 0c7 0 12 6 12 13 0 7-5 13-12 13z m-54 367c8-3 15-13 15-22l0-345-128 0 0 404z m-369 4c0 8 8 18 16 20l215 65 0-456-231 0z"/>
<glyph glyph-name="arrow-down" unicode="&#103;" d="M252 17l154 153c5 5 5 13 0 18-5 5-13 5-18 0l-132-132 0 418c0 7-6 12-13 12-7 0-13-5-13-12l0-418-131 132c-5 5-13 5-18 0-3-2-4-6-4-9 0-3 1-6 4-9l153-153c5-5 13-5 18 0z"/>
<glyph glyph-name="bookmark" unicode="&#104;" d="M397 0c-4 0-7 2-10 4l-144 168-144-168c-3-4-9-5-14-3-5 2-8 6-8 12l0 461c0 7 6 12 13 12l307 0c7 0 13-5 13-12l0-461c0-6-4-10-9-12-1-1-3-1-4-1z m-154 205c4 0 7-2 10-5l131-153 0 414-282 0 0-414 131 153c3 3 6 5 10 5z"/>
<glyph glyph-name="briefcase" unicode="&#105;" d="M474 384l-116 0 0 38c0 22-17 39-38 39l-128 0c-21 0-38-17-38-39l0-38-116 0c-21 0-38-17-38-38l0-282c0-21 17-38 38-38l436 0c21 0 38 17 38 38l0 282c0 21-17 38-38 38z m-295 38c0 7 6 13 13 13l128 0c7 0 13-6 13-13l0-38-154 0z m-141-64l436 0c7 0 12-5 12-12l0-192-51 0 0 12c0 7-6 13-13 13l-51 0c-7 0-13-6-13-13l0-12-204 0 0 12c0 7-6 13-13 13l-51 0c-7 0-13-6-13-13l0-12-51 0 0 192c0 7 5 12 12 12z m372-204l0-26-26 0 0 26z m-282 0l0-26-26 0 0 26z m346-103l-436 0c-7 0-12 6-12 13l0 64 51 0 0-13c0-7 6-13 13-13l51 0c7 0 13 6 13 13l0 13 204 0 0-13c0-7 6-13 13-13l51 0c7 0 13 6 13 13l0 13 51 0 0-64c0-7-5-13-12-13z"/>
<glyph glyph-name="bubble" unicode="&#106;" d="M13 26c-6 0-11 3-13 9-1 6 1 11 6 14 44 26 61 64 68 82-47 36-74 86-74 138 0 26 7 52 20 76 12 23 30 43 52 61 46 35 107 55 171 55 65 0 125-20 171-55 23-18 40-38 53-61 13-24 19-50 19-76 0-27-6-52-19-76-13-23-30-43-53-61-46-36-106-55-171-55-26 0-52 3-77 10-11-8-32-21-56-33-38-19-71-28-97-28z m230 409c-120 0-217-74-217-166 0-47 25-91 70-123 5-3 7-8 5-14-3-11-13-41-40-71 33 12 69 32 95 50 4 2 8 3 11 2 24-7 50-11 76-11 120 0 218 75 218 167 0 92-98 166-218 166z"/>
<glyph glyph-name="arrow-down-circle" unicode="&#107;" d="M415 71c46 46 71 107 71 172 0 65-25 126-71 172-46 46-107 71-172 71-65 0-126-25-172-71-46-46-71-107-71-172 0-65 25-126 71-172 46-46 107-71 172-71 65 0 126 25 172 71z m-389 172c0 120 97 218 217 218 120 0 218-98 218-218 0-120-98-217-218-217-120 0-217 97-217 217z m226-150l103 103c5 5 5 13 0 18-5 5-13 5-18 0l-81-81 0 264c0 7-6 13-13 13-7 0-13-6-13-13l0-264-80 81c-5 5-13 5-18 0-3-3-4-6-4-9 0-3 1-7 4-9l102-103c5-5 13-5 18 0z"/>
<glyph glyph-name="bug" unicode="&#108;" d="M448 205l-39 0c-1 28-8 55-20 79 27 8 46 33 46 62 0 7-6 12-13 12-7 0-12-5-12-12 0-20-15-36-34-38-4 6-9 13-14 19-3 3-6 6-9 9 4 12 5 23 5 35 0 64-51 115-115 115-63 0-115-51-115-115 0-12 2-23 5-35-3-3-5-6-8-9-5-6-10-13-15-19-19 2-33 18-33 38 0 7-6 12-13 12-7 0-13-5-13-12 0-29 20-54 46-62-11-24-18-51-20-79l-39 0c-7 0-12-6-12-13 0-7 5-13 12-13l39 0c2-28 9-55 20-79-26-8-46-33-46-62 0-7 6-12 13-12 7 0 13 5 13 12 0 20 14 36 33 38 5-6 10-13 15-19 31-37 73-57 118-57 45 0 87 20 118 57 6 6 11 13 15 19 19-2 34-18 34-38 0-7 5-12 12-12 7 0 13 5 13 12 0 29-19 54-46 62 12 24 19 51 20 79l39 0c7 0 13 6 13 13 0 7-6 13-13 13z m-205 256c50 0 90-40 90-90 0-5-1-11-2-16-26 19-56 29-88 29-31 0-62-10-88-29-1 5-1 11-1 16 0 50 40 90 89 90z m-141-269c0 87 57 158 128 166l0-332c-71 8-128 79-128 166z m154-166l0 332c72-8 128-79 128-166 0-87-56-158-128-166z"/>
<glyph glyph-name="arrow-left" unicode="&#109;" d="M17 252l153 154c5 5 13 5 18 0 5-5 5-13 0-18l-131-132 417 0c7 0 12-6 12-13 0-7-5-13-12-13l-417 0 131-131c5-5 5-13 0-18-2-3-6-4-9-4-3 0-6 1-9 4l-153 153c-5 5-5 13 0 18z"/>
<glyph glyph-name="bullhorn" unicode="&#111;" d="M496 433c-14 44-34 53-48 53 0 0-1 0-1 0-14 0-39-7-77-18-79-23-198-58-319-58-29 0-51-39-51-90 0-51 22-90 51-90 10 0 19 0 28 0l43-170c5-19 24-34 44-34l34 0c11 0 20 4 26 12 5 8 6 19 1 29l-66 155c81-12 155-34 209-50 38-11 63-18 77-18 0 0 1 0 1 0 14 0 34 9 48 53 10 31 16 71 16 113 0 42-6 82-16 113z m-86-113c0 13 0 26 1 38 13-1 24-18 24-38 0-20-11-37-24-38-1 12-1 25-1 38z m-384 0c0 39 15 64 25 64 29 0 58 2 86 5-6-19-9-43-9-69 0-26 3-50 9-69-28 3-57 5-86 5-10 0-25 25-25 64z m178-263c1-3 1-4 0-5 0 0-1-1-4-1l-34 0c-8 0-17 7-19 15l-41 162c9-1 17-1 26-2z m-38 190c-8 18-12 45-12 73 0 29 4 55 12 73 82 12 156 34 211 50 11 3 21 6 30 9-2-6-5-12-7-19-10-31-16-71-16-113 0-42 6-82 16-113 2-7 5-13 7-19-9 3-19 6-30 9-55 16-129 38-211 50z m306-32c-9-28-20-36-24-36-4 0-15 8-24 36-4 12-7 26-10 41 13 2 24 9 33 20 9 12 14 28 14 44 0 16-5 32-14 44-9 11-20 18-33 20 3 15 6 29 10 41 9 28 20 36 24 36 4 0 15-8 24-36 9-28 14-65 14-105 0-40-5-77-14-105z"/>
<glyph glyph-name="bus" unicode="&#112;" d="M141 102c-21 0-39 18-39 39 0 21 18 38 39 38 21 0 38-17 38-38 0-21-17-39-38-39z m0 52c-7 0-13-6-13-13 0-7 6-13 13-13 7 0 13 6 13 13 0 7-6 13-13 13z m230-52c-21 0-38 18-38 39 0 21 17 38 38 38 21 0 39-17 39-38 0-21-18-39-39-39z m0 52c-7 0-13-6-13-13 0-7 6-13 13-13 7 0 13 6 13 13 0 7-6 13-13 13z m-25 230l-180 0c-7 0-12 6-12 13 0 7 5 13 12 13l180 0c7 0 12-6 12-13 0-7-5-13-12-13z m51-26l-282 0c-7 0-13-5-13-12l0-128c0-7 6-13 13-13l128 0c0 0 0 0 0 0 0 0 0 0 0 0l128 0c0 0 0 0 0 0 0 0 0 0 0 0l26 0c7 0 13 6 13 13l0 128c0 7-6 12-13 12z m-269-25l256 0 0-103-9 0-74 49c-5 4-13 3-17-3-4-6-3-14 3-18l42-28-82 0-73 49c-6 4-14 3-18-3-4-6-3-14 3-18l42-28-73 0 0 103z m272 133c-35 14-84 20-144 20-60 0-109-6-144-20-50-19-61-48-61-69l0-282c0-31 22-57 51-63l0-26c0-15 12-26 26-26l26 0c14 0 25 11 25 26l0 25 154 0 0-25c0-15 11-26 25-26l26 0c14 0 26 11 26 26l0 26c29 6 51 32 51 63l0 282c0 21-11 50-61 69z m-246-440l-26 0 0 25 26 0z m204 0l0 25 26 0 0-25z m77 89c0-21-17-38-38-38l-282 0c-21 0-38 17-38 38l0 282c0 19 15 34 44 45 32 12 78 19 135 19 57 0 103-7 135-19 29-11 44-26 44-45z"/>
<glyph glyph-name="arrow-left-circle" unicode="&#113;" d="M71 415c46 46 107 71 172 71 65 0 126-25 172-71 46-46 71-107 71-172 0-65-25-126-71-172-46-46-107-71-172-71-65 0-126 25-172 71-46 46-71 107-71 172 0 65 25 126 71 172z m172-389c120 0 218 97 218 217 0 120-98 218-218 218-120 0-217-98-217-218 0-120 97-217 217-217z m-150 226l103 103c5 5 13 5 18 0 5-5 5-13 0-18l-81-81 264 0c7 0 13-6 13-13 0-7-6-13-13-13l-264 0 81-80c5-5 5-13 0-18-3-3-6-4-9-4-3 0-7 1-9 4l-103 102c-5 5-5 13 0 18z"/>
<glyph glyph-name="arrow-right" unicode="&#114;" d="M495 252l-153 154c-5 5-13 5-18 0-5-5-5-13 0-18l132-132-418 0c-7 0-12-6-12-13 0-7 5-13 12-13l418 0-132-131c-5-5-5-13 0-18 2-3 6-4 9-4 3 0 6 1 9 4l153 153c5 5 5 13 0 18z"/>
<glyph glyph-name="calendar-full" unicode="&#115;" d="M474 461l-64 0 0 13c0 7-6 12-13 12-7 0-13-5-13-12l0-13-256 0 0 13c0 7-6 12-13 12-7 0-13-5-13-12l0-13-64 0c-21 0-38-17-38-39l0-358c0-21 17-38 38-38l436 0c21 0 38 17 38 38l0 358c0 22-17 39-38 39z m-436-26l64 0 0-38c0-7 6-13 13-13 7 0 13 6 13 13l0 38 256 0 0-38c0-7 6-13 13-13 7 0 13 6 13 13l0 38 64 0c7 0 12-6 12-13l0-64-460 0 0 64c0 7 5 13 12 13z m436-384l-436 0c-7 0-12 6-12 13l0 269 460 0 0-269c0-7-5-13-12-13z m-282 205l-26 0c-7 0-12 6-12 13 0 7 5 13 12 13l26 0c7 0 13-6 13-13 0-7-6-13-13-13z m77 0l-26 0c-7 0-13 6-13 13 0 7 6 13 13 13l26 0c7 0 13-6 13-13 0-7-6-13-13-13z m77 0l-26 0c-7 0-13 6-13 13 0 7 6 13 13 13l26 0c7 0 12-6 12-13 0-7-5-13-12-13z m76 0l-25 0c-7 0-13 6-13 13 0 7 6 13 13 13l25 0c7 0 13-6 13-13 0-7-6-13-13-13z m-307-51l-25 0c-7 0-13 6-13 13 0 7 6 12 13 12l25 0c7 0 13-5 13-12 0-7-6-13-13-13z m77 0l-26 0c-7 0-12 6-12 13 0 7 5 12 12 12l26 0c7 0 13-5 13-12 0-7-6-13-13-13z m77 0l-26 0c-7 0-13 6-13 13 0 7 6 12 13 12l26 0c7 0 13-5 13-12 0-7-6-13-13-13z m77 0l-26 0c-7 0-13 6-13 13 0 7 6 12 13 12l26 0c7 0 12-5 12-12 0-7-5-13-12-13z m76 0l-25 0c-7 0-13 6-13 13 0 7 6 12 13 12l25 0c7 0 13-5 13-12 0-7-6-13-13-13z m-307-51l-25 0c-7 0-13 5-13 12 0 7 6 13 13 13l25 0c7 0 13-6 13-13 0-7-6-12-13-12z m77 0l-26 0c-7 0-12 5-12 12 0 7 5 13 12 13l26 0c7 0 13-6 13-13 0-7-6-12-13-12z m77 0l-26 0c-7 0-13 5-13 12 0 7 6 13 13 13l26 0c7 0 13-6 13-13 0-7-6-12-13-12z m77 0l-26 0c-7 0-13 5-13 12 0 7 6 13 13 13l26 0c7 0 12-6 12-13 0-7-5-12-12-12z m76 0l-25 0c-7 0-13 5-13 12 0 7 6 13 13 13l25 0c7 0 13-6 13-13 0-7-6-12-13-12z m-307-52l-25 0c-7 0-13 6-13 13 0 7 6 13 13 13l25 0c7 0 13-6 13-13 0-7-6-13-13-13z m77 0l-26 0c-7 0-12 6-12 13 0 7 5 13 12 13l26 0c7 0 13-6 13-13 0-7-6-13-13-13z m77 0l-26 0c-7 0-13 6-13 13 0 7 6 13 13 13l26 0c7 0 13-6 13-13 0-7-6-13-13-13z m77 0l-26 0c-7 0-13 6-13 13 0 7 6 13 13 13l26 0c7 0 12-6 12-13 0-7-5-13-12-13z m76 0l-25 0c-7 0-13 6-13 13 0 7 6 13 13 13l25 0c7 0 13-6 13-13 0-7-6-13-13-13z"/>
<glyph glyph-name="camera" unicode="&#116;" d="M243 128c-63 0-115 52-115 115 0 64 52 115 115 115 64 0 115-51 115-115 0-63-51-115-115-115z m0 205c-49 0-89-40-89-90 0-49 40-89 89-89 50 0 90 40 90 89 0 50-40 90-90 90z m205-282l-410 0c-21 0-38 17-38 39l0 256c0 21 17 38 38 38l39 0c10 0 27 7 34 14l15 15c13 13 36 22 53 22l128 0c18 0 41-9 53-22l15-15c7-7 24-14 35-14l38 0c21 0 38-17 38-38l0-256c0-22-17-39-38-39z m-410 307c-7 0-12-5-12-12l0-256c0-7 5-13 12-13l410 0c7 0 13 6 13 13l0 256c0 7-6 12-13 12l-38 0c-18 0-41 10-53 22l-15 15c-8 8-24 15-35 15l-128 0c-10 0-27-7-34-15l-15-15c-13-12-36-22-53-22l-39 0z"/>
<glyph glyph-name="arrow-right-circle" unicode="&#117;" d="M415 415c-46 46-107 71-172 71-65 0-126-25-172-71-46-46-71-107-71-172 0-65 25-126 71-172 46-46 107-71 172-71 65 0 126 25 172 71 46 46 71 107 71 172 0 65-25 126-71 172z m-172-389c-120 0-217 97-217 217 0 120 97 218 217 218 120 0 218-98 218-218 0-120-98-217-218-217z m150 226l-102 103c-5 5-13 5-18 0-5-5-5-13 0-18l80-81-263 0c-7 0-13-6-13-13 0-7 6-13 13-13l263 0-80-80c-5-5-5-13 0-18 2-3 5-4 9-4 3 0 6 1 9 4l102 102c5 5 5 13 0 18z"/>
<glyph glyph-name="arrow-up" unicode="&#118;" d="M234 495l-153-153c-5-5-5-13 0-18 5-5 13-5 18 0l131 131 0-417c0-7 6-12 13-12 7 0 13 5 13 12l0 417 132-131c5-5 13-5 18 0 2 2 4 6 4 9 0 3-2 6-4 9l-154 153c-5 5-13 5-18 0z"/>
<glyph glyph-name="camera-video" unicode="&#119;" d="M490 75c-6 0-13 3-19 8l-88 70c-14 12-25 34-25 52l0 77c0 18 11 40 25 51l88 71c6 5 13 7 19 7 11 0 22-8 22-27l0-282c0-7-2-13-5-17-4-6-10-10-17-10z m-4 308l-87-70c-8-6-15-21-15-31l0-77c0-10 7-25 15-32l87-70 0 280z m-192-306l-256 0c-21 0-38 17-38 38l0 256c0 21 17 39 38 39l256 0c22 0 39-18 39-39l0-256c0-21-17-38-39-38z m-256 307c-7 0-12-6-12-13l0-256c0-7 5-13 12-13l256 0c7 0 13 6 13 13l0 256c0 7-6 13-13 13z"/>
<glyph glyph-name="car" unicode="&#120;" d="M141 102c-21 0-39 18-39 39 0 21 18 38 39 38 21 0 38-17 38-38 0-21-17-39-38-39z m0 52c-7 0-13-6-13-13 0-7 6-13 13-13 7 0 13 6 13 13 0 7-6 13-13 13z m230-52c-21 0-38 18-38 39 0 21 17 38 38 38 21 0 39-17 39-38 0-21-18-39-39-39z m0 52c-7 0-13-6-13-13 0-7 6-13 13-13 7 0 13 6 13 13 0 7-6 13-13 13z m63 53c-3 20-14 82-26 106-8 16-28 28-59 35-26 7-59 10-93 10-34 0-67-3-93-10-31-8-51-19-59-35-12-24-23-86-26-106-18-12-27-30-27-53l0-64c0-17 11-31 26-37l0-27c0-15 11-26 25-26l26 0c14 0 26 11 26 26l0 25 204 0 0-25c0-15 12-26 26-26l26 0c14 0 25 11 25 26l0 27c15 6 26 20 26 37l0 64c0 23-9 41-27 53z m-307 94c7 16 55 32 129 32 74 0 122-16 129-32 8-14 16-53 21-81-3 1-5 1-8 2-7 2-14 3-22 4l-74 53c-6 4-14 3-18-3-4-5-3-13 3-18l40-28c-22 0-46 0-71 0-3 0-6 0-9 0l-74 49c-5 4-13 3-17-3-4-6-3-14 3-18l42-28c-34-1-64-2-87-8-3-1-5-1-8-2 5 28 13 67 21 81z m1-275l-26 0 0 25 26 0z m256 0l0 25 26 0 0-25z m51 64c0-7-6-13-13-13l-332 0c-7 0-13 6-13 13l0 64c0 23 12 36 43 43 32 8 80 8 136 8 56 0 104 0 136-8 31-7 43-20 43-43z"/>
<glyph glyph-name="arrow-up-circle" unicode="&#121;" d="M71 415c-46-46-71-107-71-172 0-65 25-126 71-172 46-46 107-71 172-71 65 0 126 25 172 71 46 46 71 107 71 172 0 65-25 126-71 172-46 46-107 71-172 71-65 0-126-25-172-71z m390-172c0-120-98-217-218-217-120 0-217 97-217 217 0 120 97 218 217 218 120 0 218-98 218-218z m-227 150l-102-102c-5-5-5-13 0-18 5-5 13-5 18 0l80 80 0-263c0-7 6-13 13-13 7 0 13 6 13 13l0 263 81-80c5-5 13-5 18 0 2 2 3 5 3 9 0 3-1 6-3 9l-103 102c-5 5-13 5-18 0z"/>
<glyph glyph-name="bicycle" unicode="&#122;" d="M141 282c-21 0-39 17-39 38 0 21 18 38 39 38 21 0 38-17 38-38 0-21-17-38-38-38z m0 51c-7 0-13-6-13-13 0-7 6-13 13-13 7 0 13 6 13 13 0 7-6 13-13 13z m102-256c-7 0-13 6-13 13l0 76c0 20 15 40 34 45l39 11-84 56-44-44c-2-2-5-4-9-4l-51 0c-7 0-13 6-13 13 0 7 6 13 13 13l46 0 48 47c4 5 11 5 16 2l94-63c14-9 14-20 13-24-1-5-4-15-20-20l-41-11c-8-3-15-12-15-21l0-76c0-7-6-13-13-13z m141-77c-56 0-102 46-102 102 0 57 46 103 102 103 56 0 102-46 102-103 0-56-46-102-102-102z m0 179c-42 0-77-34-77-77 0-42 35-76 77-76 42 0 77 34 77 76 0 43-35 77-77 77z m-282-179c-56 0-102 46-102 102 0 57 46 103 102 103 57 0 103-46 103-103 0-56-46-102-103-102z m0 179c-42 0-76-34-76-77 0-42 34-76 76-76 43 0 77 34 77 76 0 43-34 77-77 77z"/>
<glyph glyph-name="cart" unicode="&#65;" d="M205 0c-28 0-51 23-51 51 0 28 23 51 51 51 28 0 51-23 51-51 0-28-23-51-51-51z m0 77c-14 0-26-12-26-26 0-14 12-25 26-25 14 0 25 11 25 25 0 14-11 26-25 26z m179-77c-28 0-51 23-51 51 0 28 23 51 51 51 28 0 51-23 51-51 0-28-23-51-51-51z m0 77c-14 0-26-12-26-26 0-14 12-25 26-25 14 0 26 11 26 25 0 14-12 26-26 26z m65 321c-6 7-16 12-27 12l-313 0-3 15c-3 20-22 36-42 36l-26 0c-7 0-12-6-12-13 0-7 5-13 12-13l26 0c8 0 16-7 17-14l43-257c3-20 22-36 42-36l256 0c7 0 13 6 13 13 0 7-6 13-13 13l-256 0c-7 0-15 6-17 14l-6 38 255 22c20 2 38 19 41 38l17 103c2 11-1 21-7 29z m-18-24l-17-103c-1-9-10-17-18-17l-257-23-26 153 309 0c3 0 6-1 7-3 2-2 3-4 2-7z"/>
<glyph glyph-name="chart-bars" unicode="&#66;" d="M448 0l-410 0c-21 0-38 17-38 38l0 410c0 21 17 38 38 38l410 0c21 0 38-17 38-38l0-410c0-21-17-38-38-38z m-410 461c-7 0-12-6-12-13l0-410c0-7 5-12 12-12l410 0c7 0 13 5 13 12l0 410c0 7-6 13-13 13z m128-384l-51 0c-7 0-13 6-13 13l0 230c0 7 6 13 13 13l51 0c7 0 13-6 13-13l0-230c0-7-6-13-13-13z m-38 25l26 0 0 205-26 0z m141-25l-51 0c-7 0-13 6-13 13l0 307c0 7 6 13 13 13l51 0c7 0 13-6 13-13l0-307c0-7-6-13-13-13z m-39 25l26 0 0 282-26 0z m141-25l-51 0c-7 0-13 6-13 13l0 128c0 7 6 12 13 12l51 0c7 0 13-5 13-12l0-128c0-7-6-13-13-13z m-38 25l25 0 0 103-25 0z"/>
<glyph glyph-name="bold" unicode="&#67;" d="M256 282l-64 0c-7 0-13 5-13 12l0 77c0 7 6 13 13 13l64 0c28 0 51-23 51-51 0-28-23-51-51-51z m-51 25l51 0c14 0 26 12 26 26 0 14-12 25-26 25l-51 0z m77-179l-90 0c-7 0-13 6-13 13l0 77c0 7 6 12 13 12l90 0c28 0 51-23 51-51 0-28-23-51-51-51z m-77 26l77 0c14 0 25 11 25 25 0 14-11 26-25 26l-77 0z m77-103l-141 0c-21 0-39 17-39 39l0 332c0 22 18 39 39 39l115 0c71 0 128-58 128-128 0-21-5-42-15-60 26-25 41-58 41-94 0-70-58-128-128-128z m-141 384c-7 0-13-6-13-13l0-332c0-7 6-13 13-13l141 0c56 0 102 46 102 102 0 32-14 61-39 81-6 4-7 12-3 17 11 17 16 36 16 56 0 56-46 102-102 102z"/>
<glyph glyph-name="book" unicode="&#68;" d="M371 51l-256 0c-7 0-13 6-13 13 0 7 6 13 13 13l256 0c7 0 13-6 13-13 0-7-6-13-13-13z m51 384c-7 0-12-6-12-13l0-384c0-7-6-12-13-12l-282 0c-21 0-38 17-38 38 0 21 17 38 38 38l231 0c21 0 38 18 38 39l0 307c0 21-17 38-38 38l-256 0c-22 0-39-17-39-38l0-384c0-35 29-64 64-64l282 0c21 0 38 17 38 38l0 384c0 7-6 13-13 13z m-332 26l256 0c7 0 12-6 12-13l0-307c0-7-5-13-12-13l-231 0c-14 0-27-5-38-13l0 333c0 7 6 13 13 13z"/>
<glyph glyph-name="checkmark-circle" unicode="&#69;" d="M243 0c-65 0-126 25-172 71-46 46-71 107-71 172 0 65 25 126 71 172 46 46 107 71 172 71 65 0 126-25 172-71 46-46 71-107 71-172 0-65-25-126-71-172-46-46-107-71-172-71z m0 461c-120 0-217-98-217-218 0-120 97-217 217-217 120 0 218 97 218 217 0 120-98 218-218 218z m-51-320c-3 0-7 1-9 4l-77 76c-5 5-5 13 0 18 5 5 13 5 18 0l68-67 170 170c5 5 13 5 18 0 5-5 5-13 0-18l-179-179c-2-3-6-4-9-4z"/>
<glyph glyph-name="cloud-download" unicode="&#70;" d="M410 102l-64 0c-7 0-13 6-13 13 0 7 6 13 13 13l64 0c42 0 76 34 76 77 0 42-34 76-76 76-9 0-18-1-26-4-6-2-12 0-16 5-3 5-2 11 2 16 9 9 14 22 14 35 0 28-23 51-51 51-17 0-32-8-41-21-6-8-10-17-10-27-1-5-4-10-10-12-5-1-10 1-14 5l0 1c-2 4-5 7-9 11-24 27-59 43-95 43-71 0-128-57-128-128 0-71 57-128 128-128l38 0c7 0 13-6 13-13 0-7-6-13-13-13l-38 0c-85 0-154 69-154 154 0 85 69 154 154 154 41 0 80-17 109-46 2 5 5 10 8 14 14 20 38 32 62 32 42 0 77-35 77-77 0-9-2-18-5-26 2 0 3 0 5 0 56 0 102-46 102-102 0-57-46-103-102-103z m-81 73c-5 5-13 5-18 0l-29-29 0 97c0 7-6 13-13 13-7 0-13-6-13-13l0-97-29 29c-5 5-13 5-18 0-5-5-5-13 0-18l51-51c2-2 6-4 9-4 3 0 6 2 9 4l51 51c5 5 5 13 0 18z"/>
<glyph glyph-name="cloud-check" unicode="&#71;" d="M410 102l-244 0c-7 0-12 6-12 13 0 7 5 13 12 13l244 0c42 0 76 34 76 77 0 42-34 77-76 77-9 0-18-2-26-5-6-2-12 0-15 5-3 5-3 12 1 16 9 10 14 22 14 35 0 28-23 51-51 51-27 0-50-21-51-48-1-5-4-10-10-11-5-2-10 0-14 4-24 35-63 55-104 55-71 0-128-57-128-128 0-4 0-8 0-12 1-7-4-13-11-14-8 0-14 5-14 12-1 5-1 9-1 14 0 85 69 154 154 154 41 0 80-17 109-46 12 27 39 46 70 46 42 0 77-35 77-77 0-9-2-18-5-26 2 0 3 0 5 0 56 0 102-46 102-102 0-57-46-103-102-103z m-320 13c-4 0-7 1-9 4l-52 51c-5 5-5 13 0 18 5 5 13 5 18 0l43-42 119 119c5 5 13 5 18 0 5-5 5-13 0-18l-128-128c-3-3-6-4-9-4z"/>
<glyph glyph-name="cloud" unicode="&#72;" d="M410 102l-256 0c-85 0-154 69-154 154 0 85 69 154 154 154 41 0 80-17 109-46 2 5 5 10 8 14 14 20 38 32 62 32 42 0 77-35 77-77 0-9-2-18-5-26 2 0 3 0 5 0 56 0 102-46 102-102 0-57-46-103-102-103z m-256 282c-71 0-128-57-128-128 0-71 57-128 128-128l256 0c42 0 76 34 76 77 0 42-34 76-76 76-9 0-18-1-27-4-5-2-11 0-15 5-3 5-2 11 2 16 9 9 14 22 14 35 0 28-23 51-51 51-17 0-32-8-41-21-6-8-10-17-10-27-1-5-4-10-10-11-5-2-10 0-14 5-2 4-5 7-9 11-24 27-59 43-95 43z"/>
<glyph glyph-name="clock" unicode="&#73;" d="M418 74c44 46 68 105 68 169 0 61-22 118-62 163l18 17 16-16c3-3 6-4 9-4 3 0 7 1 9 4 5 5 5 13 0 18l-51 51c-5 5-13 5-18 0-5-5-5-13 0-18l17-16-18-18c-45 40-102 62-163 62-60 0-118-22-162-62l-18 18 16 16c5 5 5 13 0 18-5 5-13 5-18 0l-51-51c-5-5-5-13 0-18 3-3 6-4 9-4 3 0 7 1 9 4l17 16 17-17c-40-45-62-102-62-163 0-64 24-123 69-169l-52-52c-5-5-5-13 0-18 2-3 5-4 9-4 3 0 6 1 9 4l52 52c44-36 99-56 156-56 58 0 112 20 156 56l53-52c2-3 6-4 9-4 3 0 6 1 9 4 5 5 5 13 0 18z m-392 169c0 120 97 218 217 218 120 0 218-98 218-218 0-120-98-217-218-217-120 0-217 97-217 217z m361 83c-3 7-11 9-17 5l-126-73-98 69c-6 4-14 3-18-3-4-6-3-14 3-18l105-73c0 0 0 0 0 0 0-1 0-1 1-1 0 0 0 0 0 0 0 0 0 0 0 0 1 0 1 0 1 0 0 0 0-1 0-1 1 0 1 0 1 0 0 0 0 0 0 0 0 0 1 0 1 0 0 0 0 0 0 0 0 0 0 0 1 0 0 0 0 0 0 0 0 0 0 0 0 0 1-1 1-1 1-1 0 0 0 0 0 0 1 0 1 0 1 0 0 0 0 0 0 0 0 0 0 0 0 0 1 0 1 0 2 0 0 0 0 0 0 0 0 1 1 1 1 1 0 0 0 0 0 0 1 0 1 0 2 0 0 0 0 0 0 0 0 0 1 0 1 1 0 0 0 0 0 0 0 0 0 0 1 0l133 77c6 3 8 11 4 17z"/>
<glyph glyph-name="circle-minus" unicode="&#74;" d="M415 415c-46 46-107 71-172 71-65 0-126-25-172-71-46-46-71-107-71-172 0-65 25-126 71-172 46-46 107-71 172-71 65 0 126 25 172 71 46 46 71 107 71 172 0 65-25 126-71 172z m-172-389c-120 0-217 97-217 217 0 120 97 218 217 218 120 0 218-98 218-218 0-120-98-217-218-217z m154 204l-307 0c-7 0-13 6-13 13 0 7 6 13 13 13l307 0c7 0 13-6 13-13 0-7-6-13-13-13z"/>
<glyph glyph-name="chevron-up-circle" unicode="&#75;" d="M71 415c-46-46-71-107-71-172 0-65 25-126 71-172 46-46 107-71 172-71 65 0 126 25 172 71 46 46 71 107 71 172 0 65-25 126-71 172-46 46-107 71-172 71-65 0-126-25-172-71z m390-172c0-120-98-217-218-217-120 0-217 97-217 217 0 120 97 218 217 218 120 0 218-98 218-218z m-77-38c0-3-1-7-4-9-5-5-13-5-18 0l-119 119-119-119c-5-5-13-5-18 0-5 5-5 13 0 18l128 128c5 5 13 5 18 0l128-128c3-3 4-6 4-9z"/>
<glyph glyph-name="chevron-up" unicode="&#76;" d="M0 128c0-3 1-7 4-9 5-5 13-5 18 0l221 221 222-221c5-5 13-5 18 0 5 5 5 13 0 18l-231 230c-5 5-13 5-18 0l-230-230c-3-2-4-6-4-9z"/>
<glyph glyph-name="chevron-right-circle" unicode="&#77;" d="M415 415c-46 46-107 71-172 71-65 0-126-25-172-71-46-46-71-107-71-172 0-65 25-126 71-172 46-46 107-71 172-71 65 0 126 25 172 71 46 46 71 107 71 172 0 65-25 126-71 172z m-172-389c-120 0-217 97-217 217 0 120 97 218 217 218 120 0 218-98 218-218 0-120-98-217-218-217z m-38 76c-3 0-7 2-9 4-5 5-5 13 0 18l119 119-119 119c-5 5-5 13 0 18 5 5 13 5 18 0l128-128c5-5 5-13 0-18l-128-128c-3-2-6-4-9-4z"/>
<glyph glyph-name="chevron-right" unicode="&#78;" d="M128 0c-3 0-7 1-9 4-5 5-5 13 0 18l221 221-221 222c-5 5-5 13 0 18 5 5 13 5 18 0l230-231c5-5 5-13 0-18l-230-230c-2-3-6-4-9-4z"/>
<glyph glyph-name="chevron-left-circle" unicode="&#79;" d="M71 415c46 46 107 71 172 71 65 0 126-25 172-71 46-46 71-107 71-172 0-65-25-126-71-172-46-46-107-71-172-71-65 0-126 25-172 71-46 46-71 107-71 172 0 65 25 126 71 172z m172-389c120 0 218 97 218 217 0 120-98 218-218 218-120 0-217-98-217-218 0-120 97-217 217-217z m39 76c3 0 6 2 9 4 5 5 5 13 0 18l-119 119 119 119c5 5 5 13 0 18-5 5-13 5-18 0l-128-128c-5-5-5-13 0-18l128-128c2-2 5-4 9-4z"/>
<glyph glyph-name="chevron-left" unicode="&#80;" d="M358 0c4 0 7 1 9 4 5 5 5 13 0 18l-221 221 221 222c5 5 5 13 0 18-5 5-13 5-18 0l-230-231c-5-5-5-13 0-18l230-230c3-3 6-4 9-4z"/>
<glyph glyph-name="chevron-down-circle" unicode="&#81;" d="M415 71c46 46 71 107 71 172 0 65-25 126-71 172-46 46-107 71-172 71-65 0-126-25-172-71-46-46-71-107-71-172 0-65 25-126 71-172 46-46 107-71 172-71 65 0 126 25 172 71z m-389 172c0 120 97 218 217 218 120 0 218-98 218-218 0-120-98-217-218-217-120 0-217 97-217 217z m76 39c0 3 2 6 4 9 5 5 13 5 18 0l119-119 119 119c5 5 13 5 18 0 5-5 5-13 0-18l-128-128c-5-5-13-5-18 0l-128 128c-2 2-4 5-4 9z"/>
<glyph glyph-name="chevron-down" unicode="&#82;" d="M0 358c0 4 1 7 4 9 5 5 13 5 18 0l221-221 222 221c5 5 13 5 18 0 5-5 5-13 0-18l-231-230c-5-5-13-5-18 0l-230 230c-3 3-4 6-4 9z"/>
<glyph glyph-name="cloud-sync" unicode="&#83;" d="M410 307c-2 0-3 0-5 0 3 8 5 17 5 26 0 42-35 77-77 77-24 0-48-12-62-32-3-4-6-9-8-14-29 29-68 46-109 46-85 0-154-69-154-154 0-85 69-154 154-154l256 0c56 0 102 46 102 103 0 56-46 102-102 102z m0-179l-256 0c-71 0-128 57-128 128 0 71 57 128 128 128 36 0 71-16 95-43 4-4 7-7 9-11l0-1c4-4 9-6 14-5 6 2 9 7 10 12 0 10 4 19 10 27 9 13 24 21 41 21 28 0 51-23 51-51 0-13-5-26-14-35-4-5-5-11-1-16 3-5 9-7 15-5 8 3 17 4 26 4 42 0 76-34 76-76 0-43-34-77-76-77z m-246 78c-3-1-7-1-10-1-29 0-52 23-52 51l0 7 4-3c3-3 6-4 9-4 3 0 7 1 9 4 5 5 5 13 0 18l-25 25c-5 5-13 5-18 0l-26-25c-5-5-5-13 0-18 5-5 13-5 18 0l4 3 0-7c0-42 34-77 77-77 5 0 10 1 15 2 7 1 11 8 10 15-1 7-8 11-15 10z m70 46l-4-3 0 7c0 42-34 77-76 77-6 0-11-1-16-2-7-1-11-8-10-15 2-7 8-11 15-10 4 1 7 1 11 1 28 0 51-23 51-51l0-7-4 3c-5 5-13 5-18 0-5-5-5-13 0-18l26-25c2-3 5-4 9-4 3 0 6 1 9 4l25 25c5 5 5 13 0 18-5 5-13 5-18 0z"/>
<glyph glyph-name="cloud-upload" unicode="&#84;" d="M410 102l-90 0c-7 0-13 6-13 13 0 7 6 13 13 13l90 0c42 0 76 34 76 77 0 42-34 76-76 76-9 0-18-1-26-4-6-2-12 0-16 5-3 5-2 11 2 16 9 9 14 22 14 35 0 28-23 51-51 51-17 0-32-8-41-21-6-8-10-17-10-27-1-5-4-10-10-12-5-1-10 1-14 5l0 1c-2 4-5 7-9 11-24 27-59 43-95 43-71 0-128-57-128-128 0-71 57-128 128-128l64 0c7 0 12-6 12-13 0-7-5-13-12-13l-64 0c-85 0-154 69-154 154 0 85 69 154 154 154 41 0 80-17 109-46 2 5 5 10 8 14 14 20 38 32 62 32 42 0 77-35 77-77 0-9-2-18-5-26 2 0 3 0 5 0 56 0 102-46 102-102 0-57-46-103-102-103z m-81 99l-51 51c-5 5-13 5-18 0l-51-51c-5-5-5-13 0-18 5-5 13-5 18 0l29 29 0-97c0-7 6-13 13-13 7 0 13 6 13 13l0 97 29-29c2-3 6-4 9-4 3 0 7 1 9 4 5 5 5 13 0 18z"/>
<glyph glyph-name="code" unicode="&#85;" d="M128 128c-3 0-7 1-9 4l-102 102c-5 5-5 13 0 18l102 103c5 5 13 5 18 0 5-5 5-13 0-18l-93-94 93-93c5-5 5-13 0-18-2-3-6-4-9-4z m256 0c-3 0-7 1-9 4-5 5-5 13 0 18l93 93-93 94c-5 5-5 13 0 18 5 5 13 5 18 0l102-103c5-5 5-13 0-18l-102-102c-2-3-6-4-9-4z m-192 0c-2 0-5 1-7 2-6 4-8 12-4 18l128 204c4 6 12 8 18 4 6-3 8-11 4-17l-128-205c-3-4-7-6-11-6z"/>
<glyph glyph-name="coffee-cup" unicode="&#86;" d="M256 128c-42 0-77 34-77 77 0 42 35 77 77 77 42 0 77-35 77-77 0-43-35-77-77-77z m0 128c-28 0-51-23-51-51 0-28 23-51 51-51 28 0 51 23 51 51 0 28-23 51-51 51z m151 203l-4 18c-5 20-25 35-45 35l-204 0c-20 0-40-15-45-35l-4-18c-16-4-28-19-28-37l0-25c0-17 11-32 26-37l23-323c2-20 20-37 40-37l180 0c20 0 38 17 40 37l23 323c15 5 26 20 26 37l0 25c0 18-12 33-28 37z m-253 27l204 0c9 0 18-7 20-15l2-10-248 0 2 10c2 8 11 15 20 15z m227-153l-250 0-2 25 254 0-2-25z m-16-231l-218 0-14 205 246 0-14-205z m-19-76l-180 0c-7 0-14 6-14 13l-3 38 214 0-3-38c0-7-7-13-14-13z m64 371c0-7-6-13-13-13l-282 0c-7 0-13 6-13 13l0 25c0 7 6 13 13 13 0 0 0 0 0 0 0 0 0 0 0 0l282 0c7 0 13-6 13-13l0-25z"/>
<glyph glyph-name="cog" unicode="&#87;" d="M195 8c-1 0-2 0-3 0-23 6-45 15-65 27-6 4-9 11-5 17 4 8 6 16 6 25 0 28-23 51-51 51-9 0-17-2-25-6-6-3-13-1-17 5-12 20-21 42-27 65-2 7 2 13 8 16 21 7 35 26 35 48 0 22-14 42-35 49-6 2-10 8-8 15 6 23 15 45 27 65 4 6 11 9 17 5 8-4 16-6 25-6 28 0 51 23 51 51 0 9-2 17-6 25-4 6-1 13 5 17 20 12 42 21 65 27 7 2 13-2 15-8 7-21 27-35 49-35 22 0 41 14 48 35 3 6 9 10 16 8 23-6 45-15 65-27 6-4 8-11 5-17-4-8-6-16-6-25 0-28 23-51 51-51 9 0 17 2 25 6 6 4 13 1 17-5 12-20 21-42 27-65 2-7-2-13-8-15-21-7-35-27-35-49 0-22 14-41 35-48 6-3 10-9 8-16-6-23-15-45-27-65-4-6-11-8-17-5-8 4-16 6-25 6-28 0-51-23-51-51 0-9 2-17 6-25 3-6 1-13-5-17-20-12-42-21-65-27-7-2-13 2-16 8-7 21-26 35-48 35-22 0-42-14-49-35-1-5-6-8-12-8z m61 69c29 0 55-16 68-41 13 4 26 9 39 16-3 8-5 16-5 25 0 42 35 77 77 77 9 0 17-2 25-5 7 13 12 26 16 39-25 13-41 39-41 68 0 29 16 55 41 68-4 13-9 26-16 39-8-3-16-5-25-5-42 0-77 35-77 77 0 9 2 17 5 25-13 7-26 12-39 16-13-25-39-41-68-41-29 0-55 16-68 41-13-4-26-9-39-16 3-8 5-16 5-25 0-42-35-77-77-77-9 0-17 2-25 5-7-13-12-26-16-39 25-13 41-39 41-68 0-29-16-55-41-68 4-13 9-26 16-39 8 3 16 5 25 5 42 0 77-35 77-77 0-9-2-17-5-25 13-7 26-12 39-16 13 25 39 41 68 41z m0 102c-42 0-77 35-77 77 0 42 35 77 77 77 42 0 77-35 77-77 0-42-35-77-77-77z m0 128c-28 0-51-23-51-51 0-28 23-51 51-51 28 0 51 23 51 51 0 28-23 51-51 51z"/>
<glyph glyph-name="construction" unicode="&#88;" d="M512 384l0 38c0 7-6 13-13 13l-486 0c-7 0-13-6-13-13l0-153c0-7 6-13 13-13l38 0 0-154-13 0c-7 0-12-5-12-12 0-7 5-13 12-13l103 0c7 0 13 6 13 13 0 7-6 12-13 12l-13 0 0 77 256 0 0-77-13 0c-7 0-13-5-13-12 0-7 6-13 13-13l103 0c7 0 12 6 12 13 0 7-5 12-12 12l-13 0 0 154 38 0c7 0 13 6 13 13z m-26 5l-107-107-92 0 128 128 71 0z m-327-107l128 128 92 0-128-128z m-128 0l128 128 92 0-128-128z m92 128l-97-98 0 98z m-46-308l0 154 25 0 0-154z m51 103l0 51 256 0 0-51z m307-103l-25 0 0 154 25 0z m-20 180l71 71 0-71z"/>
<glyph glyph-name="crop" unicode="&#89;" d="M499 128l-77 0c-7 0-12 6-12 13 0 7 5 13 12 13l77 0c7 0 13-6 13-13 0-7-6-13-13-13z m-179 0l-179 0c-7 0-13 6-13 13l0 179c0 7 6 13 13 13 7 0 13-6 13-13l0-166 166 0c7 0 13-6 13-13 0-7-6-13-13-13z m-179 282c-7 0-13 5-13 12l0 77c0 7 6 13 13 13 7 0 13-6 13-13l0-77c0-7-6-12-13-12z m230-410c-7 0-13 6-13 13l0 345-345 0c-7 0-13 6-13 13 0 7 6 13 13 13l358 0c7 0 13-6 13-13l0-358c0-7-6-13-13-13z"/>
<glyph glyph-name="cross" unicode="&#90;" d="M274 243l145 145c5 5 5 13 0 18-5 5-13 5-18 0l-145-145-145 145c-5 5-13 5-18 0-5-5-5-13 0-18l145-145-145-144c-5-5-5-13 0-18 3-3 6-4 9-4 4 0 7 1 9 4l145 144 145-144c2-3 5-4 9-4 3 0 6 1 9 4 5 5 5 13 0 18l-145 144z"/>
<glyph glyph-name="cross-circle" unicode="&#48;" d="M367 150l-105 93 105 93c5 5 6 13 1 18-5 5-13 6-18 1l-107-95-106 95c-6 5-14 4-19-1-4-5-4-13 2-18l104-93-104-93c-6-4-6-12-2-18 3-3 6-4 10-4 3 0 6 1 9 3l106 95 107-95c2-2 5-3 8-3 4 0 7 1 10 4 5 6 4 14-1 18z m-124-150c-65 0-126 25-172 71-46 46-71 107-71 172 0 65 25 126 71 172 46 46 107 71 172 71 65 0 126-25 172-71 46-46 71-107 71-172 0-65-25-126-71-172-46-46-107-71-172-71z m0 461c-120 0-217-98-217-218 0-120 97-217 217-217 120 0 218 97 218 217 0 120-98 218-218 218z"/>
<glyph glyph-name="database" unicode="&#49;" d="M463 471c-13 8-31 16-53 22-45 12-104 19-167 19-62 0-122-7-166-19-23-6-40-14-53-22-16-11-24-23-24-36l0-307c0-13 8-25 24-36 13-8 30-15 53-22 44-12 104-19 166-19 63 0 122 7 167 19 22 7 40 14 53 22 15 11 23 23 23 36l0 307c0 13-8 25-23 36z m-379-3c42 12 99 18 159 18 61 0 117-6 160-18 46-13 58-27 58-33 0-6-12-20-58-33-43-11-99-18-160-18-60 0-117 7-159 18-46 13-58 27-58 33 0 6 12 20 58 33z m319-373c-43-12-99-18-160-18-60 0-117 6-159 18-46 13-58 27-58 33l0 66c12-8 29-15 51-21 44-13 104-19 166-19 63 0 122 6 167 19 21 6 38 13 51 21l0-66c0-6-12-20-58-33z m0 102c-43-11-99-18-160-18-60 0-117 7-159 18-46 13-58 28-58 33l0 66c12-8 29-15 51-21 44-12 104-19 166-19 63 0 122 7 167 19 21 6 38 13 51 21l0-66c0-5-12-20-58-33z m0 103c-43-12-99-18-160-18-60 0-117 6-159 18-46 13-58 27-58 33l0 65c12-7 29-14 51-20 44-13 104-20 166-20 63 0 122 7 167 20 21 6 38 13 51 20l0-65c0-6-12-20-58-33z"/>
<glyph glyph-name="diamond" unicode="&#50;" d="M484 328l-77 102c-2 3-5 4-8 5l-154 26c-1 0-3 0-4 0l-153-26c-4-1-7-2-9-5l-76-102c-4-5-4-12 0-17l231-256c2-2 6-4 9-4 4 0 7 2 10 4l230 256c4 5 5 12 1 17z m-157 5l-84-232-84 232z m-155 25l71 72 72-72z m109 71l94-16-31-47-64 63z m-138-63l-32 47 95 16z m-23-12l-77-15 46 61z m13-23l76-210-172 191 96 19z m221 0l95-19-171-191 76 210z m13 23l30 46 46-61z"/>
<glyph glyph-name="dice" unicode="&#51;" d="M141 102c-21 0-39 18-39 39 0 21 18 38 39 38 21 0 38-17 38-38 0-21-17-39-38-39z m0 52c-7 0-13-6-13-13 0-7 6-13 13-13 7 0 13 6 13 13 0 7-6 13-13 13z m0 51c-21 0-39 17-39 38 0 21 18 39 39 39 21 0 38-18 38-39 0-21-17-38-38-38z m0 51c-7 0-13-6-13-13 0-7 6-13 13-13 7 0 13 6 13 13 0 7-6 13-13 13z m0 51c-21 0-39 17-39 39 0 21 18 38 39 38 21 0 38-17 38-38 0-22-17-39-38-39z m0 51c-7 0-13-5-13-12 0-7 6-13 13-13 7 0 13 6 13 13 0 7-6 12-13 12z m205-51c-22 0-39 17-39 39 0 21 17 38 39 38 21 0 38-17 38-38 0-22-17-39-38-39z m0 51c-7 0-13-5-13-12 0-7 6-13 13-13 7 0 12 6 12 13 0 7-5 12-12 12z m0-153c-22 0-39 17-39 38 0 21 17 39 39 39 21 0 38-18 38-39 0-21-17-38-38-38z m0 51c-7 0-13-6-13-13 0-7 6-13 13-13 7 0 12 6 12 13 0 7-5 13-12 13z m0-154c-22 0-39 18-39 39 0 21 17 38 39 38 21 0 38-17 38-38 0-21-17-39-38-39z m0 52c-7 0-13-6-13-13 0-7 6-13 13-13 7 0 12 6 12 13 0 7-5 13-12 13z m51-128l-307 0c-36 0-64 28-64 64l0 307c0 35 28 64 64 64l307 0c35 0 64-29 64-64l0-307c0-36-29-64-64-64z m-307 409c-22 0-39-17-39-38l0-307c0-22 17-39 39-39l307 0c21 0 38 17 38 39l0 307c0 21-17 38-38 38z"/>
<glyph glyph-name="dinner" unicode="&#52;" d="M205 499c0 7-6 13-13 13-7 0-13-6-13-13 0-33 7-61 12-84 5-21 9-39 3-46-5-6-18-9-40-10 0 4 0 8 0 12l0 103c0 7-6 12-13 12-7 0-13-5-13-12l0-103c0-4 0-8 0-12-22 1-36 4-40 10-6 7-2 25 3 47 5 22 11 50 11 83 0 7-5 13-12 13-7 0-13-6-13-13 0-30-6-57-11-78-7-28-12-51 2-68 9-12 28-19 59-20-3-71-13-133-22-184-11-67-18-112 1-135 8-9 20-14 35-14 15 0 27 5 35 14 19 23 12 68 0 135-8 51-19 113-22 184 32 1 50 7 60 20 14 17 8 39 2 68-5 21-11 48-11 78z m-49-468c-2-2-5-5-15-5-10 0-14 3-16 5-11 13-3 60 6 114 3 20 7 41 10 63 3-22 7-43 10-63 9-54 17-101 5-114z m251 118c-10 60-23 134-23 222l0 128c0 6-4 11-10 13-5 1-11-1-14-6-52-91-77-229-78-235-1-4 0-8 3-10 2-3 6-5 9-5l58 0c-5-40-11-75-16-107-12-67-19-112 0-135 8-9 20-14 35-14 16 0 27 5 35 14 20 23 12 68 1 135z m-97 133c6 30 23 99 48 161l0-72c0-31-1-61-4-89l-44 0z m77-251c-2-2-6-5-16-5-10 0-13 3-15 5-12 13-4 60 5 114 3 20 7 41 10 63 4-22 7-43 10-63 9-54 17-101 6-114z"/>
<glyph glyph-name="file-empty" unicode="&#53;" d="M457 367l-115 116c-3 2-6 3-9 3l-243 0c-22 0-39-17-39-38l0-410c0-21 17-38 39-38l332 0c22 0 39 17 39 38l0 320c0 4-2 7-4 9z m-27-9l-84 0c-7 0-13 6-13 13l0 84z m5-320c0-7-6-12-13-12l-332 0c-7 0-13 5-13 12l0 410c0 7 6 13 13 13l217 0 0-90c0-21 17-38 39-38l89 0z"/>
<glyph glyph-name="file-add" unicode="&#54;" d="M457 367l-115 116c-3 2-6 3-9 3l-243 0c-22 0-39-17-39-38l0-410c0-21 17-38 39-38l332 0c22 0 39 17 39 38l0 320c0 4-2 7-4 9z m-27-9l-84 0c-7 0-13 6-13 13l0 84z m-8-332l-332 0c-7 0-13 5-13 12l0 410c0 7 6 13 13 13l217 0 0-90c0-21 17-38 39-38l89 0 0-295c0-7-6-12-13-12z m-128 153l-64 0 0 64c0 7-5 13-12 13-7 0-13-6-13-13l0-64-64 0c-7 0-13-6-13-13 0-7 6-12 13-12l64 0 0-64c0-7 6-13 13-13 7 0 12 6 12 13l0 64 64 0c7 0 13 5 13 12 0 7-6 13-13 13z"/>
<glyph glyph-name="eye" unicode="&#55;" d="M509 252c-1 1-31 33-76 66-27 19-54 34-80 45-33 14-66 21-97 21-31 0-64-7-97-21-26-11-53-26-80-45-45-33-75-65-76-66-4-5-4-13 0-17 1-2 31-34 76-66 27-19 54-35 80-46 33-14 66-21 97-21 31 0 64 7 97 21 26 11 53 27 80 46 45 32 75 64 76 66 4 4 4 12 0 17z m-187 95c23-19 36-48 36-78 0-57-46-103-102-103-56 0-102 46-102 103 0 30 13 59 36 78 21 7 43 11 66 11 23 0 45-4 66-11z m96-158c-40-28-99-61-162-61-63 0-122 33-162 61-29 21-52 43-63 54 11 12 34 33 63 54 14 10 30 20 48 29-9-17-14-37-14-57 0-71 57-128 128-128 71 0 128 57 128 128 0 20-5 40-14 57 18-9 34-19 48-29 29-21 52-42 63-54-11-11-34-33-63-54z"/>
<glyph glyph-name="exit-up" unicode="&#56;" d="M397 0l-307 0c-22 0-39 17-39 38l0 256c0 22 17 39 39 39l102 0c7 0 13-6 13-13 0-7-6-13-13-13l-102 0c-7 0-13-6-13-13l0-256c0-7 6-12 13-12l307 0c7 0 13 5 13 12l0 256c0 7-6 13-13 13l-103 0c-7 0-12 6-12 13 0 7 5 13 12 13l103 0c21 0 38-17 38-39l0-256c0-21-17-38-38-38z m-68 419l-77 76c-5 5-13 5-18 0l-77-76c-5-5-5-13 0-18 5-5 13-5 18 0l55 54 0-289c0-7 6-12 13-12 7 0 13 5 13 12l0 289 55-54c2-3 6-4 9-4 3 0 7 1 9 4 5 5 5 13 0 18z"/>
<glyph glyph-name="exit" unicode="&#57;" d="M294 307c7 0 13 6 13 13l0 102c0 22-17 39-38 39l-231 0c-21 0-38-17-38-39l0-307c0-19 14-40 31-47l132-57c5-2 10-3 14-3 6 0 11 2 15 5 8 5 13 14 13 25l0 39 64 0c21 0 38 17 38 38l0 103c0 7-6 12-13 12-7 0-12-5-12-12l0-103c0-7-6-13-13-13l-64 0 0 244c0 19-14 40-31 47l-99 42 194 0c7 0 13-6 13-13l0-102c0-7 5-13 12-13z m-131 63c9-4 16-15 16-24l0-308c0-2-1-4-1-4 0 0-2 0-4 1l-133 56c-8 4-15 15-15 24l0 307c0 2 0 4 1 6z m307-92l-77 77c-5 5-13 5-18 0-5-5-5-13 0-18l55-55-161 0c-7 0-13-6-13-13 0-7 6-13 13-13l161 0-55-55c-5-5-5-13 0-18 2-3 6-4 9-4 3 0 7 2 9 4l77 77c5 5 5 13 0 18z"/>
<glyph glyph-name="envelope" unicode="&#33;" d="M448 358l-410 0c-21 0-38-17-38-38l0-230c0-22 17-39 38-39l410 0c21 0 38 17 38 39l0 230c0 21-17 38-38 38z m0-25c1 0 1 0 2 0l-193-129c-7-5-21-5-28 0l-193 129c1 0 2 0 2 0l410 0z m0-256l-410 0c-7 0-12 6-12 13l0 219 189-126c8-6 18-8 28-8 10 0 21 2 29 8l189 126 0-219c0-7-6-13-13-13z"/>
<glyph glyph-name="enter-down" unicode="&#34;" d="M329 214c-5 5-13 5-18 0l-55-55 0 315c0 7-6 12-13 12-7 0-13-5-13-12l0-315-55 55c-5 5-13 5-18 0-5-5-5-13 0-18l77-77c3-3 6-4 9-4 4 0 7 1 9 4l77 77c5 5 5 13 0 18z m68-214l-307 0c-22 0-39 17-39 38l0 256c0 22 17 39 39 39l102 0c7 0 13-6 13-13 0-7-6-13-13-13l-102 0c-7 0-13-6-13-13l0-256c0-7 6-12 13-12l307 0c7 0 13 5 13 12l0 256c0 7-6 13-13 13l-103 0c-7 0-12 6-12 13 0 7 5 13 12 13l103 0c21 0 38-17 38-39l0-256c0-21-17-38-38-38z"/>
<glyph glyph-name="enter" unicode="&#35;" d="M448 461l-230 0c-22 0-39-17-39-39l0-76c0-7 6-13 13-13 7 0 13 6 13 13l0 76c0 7 6 13 13 13l193 0-98-42c-18-7-31-28-31-47l0-244-64 0c-7 0-13 6-13 13l0 77c0 7-6 13-13 13-7 0-13-6-13-13l0-77c0-21 17-38 39-38l64 0 0-39c0-11 4-20 12-25 5-3 10-5 15-5 5 0 9 1 14 3l132 57c18 7 31 28 31 47l0 307c0 22-17 39-38 39z m13-346c0-9-8-20-16-24l-132-56c-3-1-4-1-5-1 0 0-1 2-1 4l0 308c0 9 8 20 16 24l136 58c1-2 2-4 2-6z m-247 163l-77 77c-5 5-13 5-18 0-5-5-5-13 0-18l55-55-161 0c-7 0-13-6-13-13 0-7 6-13 13-13l161 0-55-55c-5-5-5-13 0-18 2-3 6-4 9-4 3 0 7 2 9 4l77 77c5 5 5 13 0 18z"/>
<glyph glyph-name="earth" unicode="&#36;" d="M437 437c-48 48-113 75-181 75-68 0-133-27-181-75-48-48-75-113-75-181 0-68 27-133 75-181 48-48 113-75 181-75 68 0 133 27 181 75 48 48 75 113 75 181 0 68-27 133-75 181z m34-98c-5 9-18 13-34 19-18 6-24 24-31 45-6 18-13 37-28 48 42-26 75-65 93-112z m-72-88c2-17 4-35-17-59-6-7-10-16-13-26-9-22-17-43-50-43-1 1-4 5-6 19-2 12-4 28-5 45-2 26-4 55-11 79-8 32-22 50-42 57-8 3-17 4-27 4-7 0-14-1-19-1-5-1-9-1-12-1-6 0-13 0-22 19-12 27-3 71 33 95 19 12 32 18 44 18 10 0 20-4 34-11 18-9 31-11 41-11 4 0 7 1 11 1 3 0 5 0 8 0 6 0 10-1 15-4 10-7 15-22 21-38 8-23 17-51 47-61 4-1 11-3 15-5-4-5-11-11-18-17-4-4-9-8-14-13-16-15-15-32-13-47z m-373 7c2-1 5-1 8-2 15-3 22-6 24-7-1-3-4-7-5-9-7-9-15-20-12-33 2-8 1-18-2-28-9 24-13 50-13 77 0 1 0 1 0 2z m230-232c-88 0-164 49-203 121 7 13 19 41 13 66 1 2 5 8 7 12 7 10 16 22 10 35-5 9-17 15-40 21-6 1-11 2-16 3 14 114 111 202 229 202 40 0 78-10 111-28-8 3-15 4-21 4-3 0-7 0-10-1-3 0-6 0-9 0-7 0-16 1-29 7-18 10-32 14-46 14-17 0-35-6-59-22-20-14-36-34-43-59-8-23-7-47 2-68 10-23 24-34 45-34 5 0 9 1 15 1 5 1 10 1 16 1 7 0 13-1 19-3 11-3 20-16 26-38 5-22 8-50 10-75 1-21 3-41 6-55 2-9 5-16 8-21 5-8 13-12 21-12 23 0 41 7 54 22 11 12 16 27 21 38 2 7 5 15 8 18 29 32 26 59 24 79-2 14-2 20 4 25 5 5 10 9 14 13 10 8 16 14 21 19 3 4 11 12 9 23 0 0 0 0 0 0 9-24 13-51 13-78 0-127-103-230-230-230z"/>
<glyph glyph-name="drop" unicode="&#37;" d="M256 0c-41 0-80 17-108 47-29 31-45 73-45 119 0 76 33 130 69 187 27 44 55 89 72 150 1 5 6 9 12 9 6 0 11-4 12-9 17-61 45-106 73-150 35-57 69-111 69-187 0-46-16-88-45-119-29-30-67-47-109-47z m0 458c-17-46-40-83-63-119-35-56-65-105-65-173 0-80 55-140 128-140 73 0 128 60 128 140 0 68-30 117-65 173-23 36-46 73-63 119z"/>
<glyph glyph-name="download" unicode="&#38;" d="M380 265c-5 5-13 5-18 0l-106-106 0 289c0 7-6 13-13 13-7 0-13-6-13-13l0-289-106 106c-5 5-13 5-18 0-5-5-5-13 0-18l128-128c3-3 6-4 9-4 4 0 7 1 9 4l128 128c5 5 5 13 0 18z m68-239l-410 0c-21 0-38 17-38 38l0 51c0 7 6 13 13 13 7 0 13-6 13-13l0-51c0-7 5-13 12-13l410 0c7 0 13 6 13 13l0 51c0 7 6 13 13 13 7 0 12-6 12-13l0-51c0-21-17-38-38-38z"/>
<glyph glyph-name="direction-rtl" unicode="&#39;" d="M397 486l-218 0c-56 0-102-46-102-102 0-56 46-102 102-102l26 0 0-116c0-7 6-12 13-12 7 0 12 5 12 12l0 295 77 0 0-295c0-7 6-12 13-12 7 0 13 5 13 12l0 295 64 0c7 0 13 6 13 13 0 7-6 12-13 12z m-192-179l-26 0c-42 0-77 35-77 77 0 42 35 77 77 77l26 0z m166-230l-238 0 30 29c5 5 5 13 0 18-5 5-13 5-18 0l-52-51c-5-5-5-13 0-18l52-51c2-3 5-4 9-4 3 0 6 1 9 4 5 5 5 13 0 18l-30 29 238 0c7 0 13 6 13 13 0 7-6 13-13 13z"/>
<glyph glyph-name="direction-ltr" unicode="&#40;" d="M393 73l-51 51c-5 5-13 5-18 0-5-5-5-13 0-18l29-29-238 0c-7 0-13-6-13-13 0-7 6-13 13-13l238 0-29-29c-5-5-5-13 0-18 2-3 6-4 9-4 3 0 6 1 9 4l51 51c5 5 5 13 0 18z m4 413l-218 0c-56 0-102-46-102-102 0-56 46-102 102-102l26 0 0-116c0-7 6-12 13-12 7 0 12 5 12 12l0 295 77 0 0-295c0-7 6-12 13-12 7 0 13 5 13 12l0 295 64 0c7 0 13 6 13 13 0 7-6 12-13 12z m-192-179l-26 0c-42 0-77 35-77 77 0 42 35 77 77 77l26 0z"/>
<glyph glyph-name="film-play" unicode="&#41;" d="M192 128c-2 0-4 0-6 1-4 3-7 7-7 12l0 230c0 5 3 9 7 12 5 2 10 1 14-2l153-115c4-2 5-6 5-10 0-4-1-8-5-10l-153-115c-3-2-5-3-8-3z m13 218l0-180 119 90z m294 115l-486 0c-7 0-13-6-13-13l0-384c0-7 6-13 13-13l486 0c7 0 13 6 13 13l0 384c0 7-6 13-13 13z m-422-231l-51 0 0 52 51 0z m0 77l-51 0 0 51 51 0z m-51-102l51 0 0-51-51 0z m76 230l308 0 0-358-308 0z m333-153l51 0 0-52-51 0z m0 25l0 51 51 0 0-51z m0-102l51 0 0-51-51 0z m51 179l-51 0 0 51 51 0z m-409 51l0-51-51 0 0 51z m-51-307l51 0 0-51-51 0z m409-51l0 51 51 0 0-51z"/>
<glyph glyph-name="frame-contract" unicode="&#42;" d="M371 282l-51 0c-21 0-38 17-38 38l0 51c0 7 5 13 12 13 7 0 13-6 13-13l0-51c0-7 6-13 13-13l51 0c7 0 13-6 13-13 0-7-6-12-13-12z m-205 0l-51 0c-7 0-13 5-13 12 0 7 6 13 13 13l51 0c7 0 13 6 13 13l0 51c0 7 6 13 13 13 7 0 13-6 13-13l0-51c0-21-17-38-39-38z m128-180c-7 0-12 6-12 13l0 51c0 22 17 39 38 39l51 0c7 0 13-6 13-13 0-7-6-13-13-13l-51 0c-7 0-13-6-13-13l0-51c0-7-6-13-13-13z m-102 0c-7 0-13 6-13 13l0 51c0 7-6 13-13 13l-51 0c-7 0-13 6-13 13 0 7 6 13 13 13l51 0c22 0 39-17 39-39l0-51c0-7-6-13-13-13z"/>
<glyph glyph-name="frame-expand" unicode="&#43;" d="M474 333c-7 0-13 6-13 13l0 51c0 7-6 13-13 13l-51 0c-7 0-13 5-13 12 0 7 6 13 13 13l51 0c21 0 38-17 38-38l0-51c0-7-5-13-12-13z m-461 0c-7 0-13 6-13 13l0 51c0 21 17 38 38 38l52 0c7 0 12-6 12-13 0-7-5-12-12-12l-52 0c-7 0-12-6-12-13l0-51c0-7-6-13-13-13z m77-282l-52 0c-21 0-38 17-38 39l0 51c0 7 6 13 13 13 7 0 13-6 13-13l0-51c0-7 5-13 12-13l52 0c7 0 12-6 12-13 0-7-5-13-12-13z m358 0l-51 0c-7 0-13 6-13 13 0 7 6 13 13 13l51 0c7 0 13 6 13 13l0 51c0 7 6 13 13 13 7 0 12-6 12-13l0-51c0-22-17-39-38-39z"/>
<glyph glyph-name="funnel" unicode="&#44;" d="M415 427c-10 7-24 13-42 18-35 10-81 16-130 16-49 0-95-6-130-16-18-5-32-11-42-18-16-11-20-22-20-30l0-13c0-11 8-29 17-41l125-188c6-10 12-28 12-40l0-77c0-4 2-8 6-10 2-2 4-2 7-2 2 0 4 0 5 1l52 26c4 2 7 6 7 11l0 51c0 12 5 30 12 40l125 188c8 12 16 30 16 41l0 13c0 8-3 19-19 30z m-295-6c33 9 77 14 123 14 47 0 91-5 123-14 36-10 44-21 44-24 0-3-8-14-44-24-32-9-76-15-123-15-46 0-90 6-123 15-35 10-43 21-43 24 0 3 8 14 43 24z m152-252c-9-14-16-37-16-54l0-43-26-13 0 56c0 17-7 40-16 54l-125 188c7-3 15-6 24-9 35-10 81-15 130-15 49 0 95 5 130 15 9 3 17 6 24 9l-125-188z"/>
<glyph glyph-name="gift" unicode="&#45;" d="M474 384l-77 0c8 11 13 24 13 38 0 36-29 64-64 64-36 0-66-28-80-45-9-10-17-21-23-31-6 10-13 21-22 31-15 17-45 45-80 45-35 0-64-28-64-64 0-14 5-27 13-38l-77 0c-7 0-13-6-13-13l0-77c0-7 6-12 13-12l13 0 0-244c0-21 17-38 38-38l358 0c22 0 39 17 39 38l0 244 13 0c7 0 12 5 12 12l0 77c0 7-5 13-12 13z m-189 41c20 23 42 36 61 36 21 0 38-17 38-39 0-21-17-38-38-38l-87 0c5 11 14 26 26 41z m-3-399l-77 0 0 332 77 0z m-180 396c0 22 18 39 39 39 18 0 41-13 61-36 12-15 21-30 25-41l-86 0c-21 0-39 17-39 38z m-76-64l153 0 0-51-153 0z m25-320l0 244 128 0 0-256-115 0c-7 0-13 5-13 12z m384 0c0-7-6-12-13-12l-115 0 0 256 128 0z m26 269l-154 0 0 51 154 0z"/>
<glyph glyph-name="graduation-hat" unicode="&#46;" d="M478 332l-231 77c-2 1-5 1-8 0l-230-77c-5-2-9-6-9-12 0-6 4-10 9-12l68-23 0-67c0-4 1-7 4-9 2-3 56-55 162-55 39 0 75 7 108 20 6 3 9 11 6 17-2 7-10 10-16 7-30-13-62-19-98-19-50 0-86 13-108 24-16 8-27 16-33 20l0 54 137-46c1 0 3-1 4-1 2 0 3 1 4 1l137 46 0-23c-15-5-26-20-26-36 0-16 10-30 23-35l-22-90c-1-4 0-8 2-11 3-3 6-5 10-5l51 0c4 0 8 2 11 5 2 3 3 7 2 11l-23 90c14 5 23 19 23 35 0 16-10 31-25 36l0 31 68 23c5 2 8 6 8 12 0 6-3 10-8 12z m-81-102c7 0 13-5 13-12 0-7-6-13-13-13-7 0-13 6-13 13 0 7 6 12 13 12z m-9-128l9 37 9-37z m8 206l-151 25c-7 1-13-4-14-11-2-7 3-13 10-15l103-17-101-33-190 63 190 63 190-63-37-12z"/>
<glyph glyph-name="hand" unicode="&#47;" d="M435 410c-9 0-18-3-25-7l0 32c0 28-23 51-52 51-10 0-20-3-28-8-7 20-26 34-48 34-23 0-42-14-49-34-8 5-18 8-28 8-28 0-51-23-51-51l0-189-35 60c-7 12-17 21-31 25-12 3-26 1-37-6-23-14-32-45-20-70 1-1 17-35 68-137 24-48 51-82 79-102 22-15 37-16 40-16l128 0c21 0 42 7 60 21 17 13 32 32 44 56 24 48 36 114 36 192l0 89c0 29-23 52-51 52z m26-141c0-74-12-136-34-180-14-29-40-63-81-63l-128 0c-1 0-12 1-28 13-16 12-41 38-68 91-52 103-68 136-68 136 0 0 0 1 0 1-6 12-2 29 10 36 6 4 12 4 18 3 6-2 11-6 15-12 0 0 0 0 0-1l40-69c8-15 17-21 27-18 10 2 15 12 15 29l0 200c0 14 12 26 26 26 14 0 25-12 25-26l0-166c0-7 6-13 13-13 7 0 13 6 13 13l0 192c0 14 12 25 26 25 14 0 25-11 25-25l0-192c0-7 6-13 13-13 7 0 13 6 13 13l0 166c0 14 11 26 25 26 15 0 26-12 26-26l0-192c0-7 6-13 13-13 7 0 13 6 13 13l0 115c0 15 11 26 25 26 14 0 26-11 26-26l0-89z"/>
<glyph glyph-name="heart" unicode="&#58;" d="M243 26c-2 0-4 0-6 1-2 2-60 34-118 86-34 31-61 63-81 94-25 40-38 80-38 119 0 75 60 135 134 135 25 0 52-10 75-27 14-10 26-22 34-34 9 12 20 24 34 34 23 17 50 27 75 27 74 0 134-60 134-135 0-39-12-79-38-119-19-31-47-63-81-94-58-52-115-84-118-86-1-1-4-1-6-1z m-109 409c-60 0-108-49-108-109 0-77 60-148 110-194 45-41 91-69 107-79 16 10 62 38 107 79 51 46 111 117 111 194 0 60-49 109-109 109-44 0-86-36-97-68-1-5-6-9-12-9-5 0-10 4-12 9-11 32-53 68-97 68z"/>
<glyph glyph-name="heart-pulse" unicode="&#59;" d="M243 26c-2 0-4 0-6 1-3 2-74 41-137 105-5 5-6 13-1 18 5 5 14 5 19 0 50-50 107-86 125-97 19 11 75 47 126 97 5 5 13 5 18 0 5-5 5-13 0-18-64-64-135-103-138-105-2-1-4-1-6-1z m-210 204c-5 0-10 3-12 8-14 30-21 59-21 88 0 75 60 135 134 135 25 0 52-10 75-27 14-10 26-22 34-34 9 12 20 24 34 34 23 17 50 27 75 27 74 0 134-60 134-135 0-29-7-58-21-88-3-7-10-9-17-6-6 3-9 10-6 17 13 26 19 52 19 77 0 60-49 109-109 109-44 0-86-36-97-68-1-5-6-9-12-9-5 0-10 4-12 9-11 32-53 68-97 68-60 0-108-49-108-109 0-25 6-51 18-77 3-7 1-14-6-17-2-1-3-2-5-2z m236-102c0 0 0 0 0 0-5 0-15 3-19 20l-32 111-20-84c-4-17-14-20-19-21-5 0-15 1-23 16l-15 31c-1 1-2 2-2 3 0 0 0 0 0 0-10-14-31-25-49-25l-26 0c-7 0-13 6-13 13 0 7 6 13 13 13l26 0c10 0 23 7 27 13 6 8 14 13 23 12 10 0 18-7 24-18l11-22 24 97c4 16 12 20 19 20 6 0 14-3 19-19l33-118 30 93c5 16 15 19 20 19 5 0 15-2 22-17l18-44c4-9 15-16 24-16l38 0c7 0 13-6 13-13 0-7-6-13-13-13l-38 0c-19 0-40 14-47 32l-15 36-33-100c-5-16-15-19-20-19z"/>
<glyph glyph-name="highlight" unicode="&#60;" d="M508 265c-5 5-13 5-18 0l-92-92c-15-15-39-15-54 0l-120 120c-7 7-11 17-11 27 0 10 4 20 11 27l92 92c5 5 5 13 0 18-5 5-13 5-18 0l-92-92c-12-12-18-28-18-45 0-7 1-14 3-21l-187-188c-3-2-4-5-4-9l0-38c0-7 6-13 13-13l243 0c3 0 7 2 9 4l85 85c7-2 14-4 21-4 17 0 33 7 45 19l92 92c5 5 5 13 0 18z m-257-188l-225 0 0 20 179 179c0 0 1-1 1-1l120-120c0 0 1-1 2-1z"/>
<glyph glyph-name="history" unicode="&#61;" d="M437 437c-48 48-113 75-181 75-79 0-153-36-201-97l0 33c0 7-6 13-13 13-7 0-13-6-13-13l0-76c0-6 4-11 10-13 2 0 5 0 7 1l73 25c7 2 11 9 8 16-2 7-9 10-16 8l-38-13c43 56 111 90 183 90 127 0 230-103 230-230 0-127-103-230-230-230-85 0-163 46-203 121-3 6-11 8-17 5-6-3-9-11-5-17 44-83 131-135 225-135 68 0 133 27 181 75 48 48 75 113 75 181 0 68-27 133-75 181z m-181-194c-2 0-4 1-6 2l-115 64c-7 3-9 11-5 17 3 6 11 9 17 5l109-60 134 85c6 4 14 2 18-4 3-5 2-13-4-17l-141-90c-2-1-5-2-7-2z"/>
<glyph glyph-name="home" unicode="&#62;" d="M509 201l-226 249c-7 8-17 12-27 12-10 0-20-4-27-12l-226-249c-4-6-4-14 1-18 3-3 6-4 9-4 3 0 7 2 9 4l55 61 0-206c0-21 17-38 38-38l282 0c21 0 38 17 38 38l0 206 55-61c4-5 13-5 18 0 5 4 5 12 1 18z m-202-175l-102 0 0 115c0 7 6 13 13 13l76 0c7 0 13-6 13-13z m103 12c0-7-6-12-13-12l-64 0 0 115c0 21-17 38-39 38l-76 0c-22 0-39-17-39-38l0-115-64 0c-7 0-13 5-13 12l0 234 146 161c2 3 5 4 8 4 3 0 6-1 8-4l146-161z"/>
<glyph glyph-name="line-spacing" unicode="&#63;" d="M474 384l-256 0c-7 0-13 6-13 13 0 7 6 13 13 13l256 0c7 0 12-6 12-13 0-7-5-13-12-13z m0-102l-256 0c-7 0-13 5-13 12 0 7 6 13 13 13l256 0c7 0 12-6 12-13 0-7-5-12-12-12z m0-103l-256 0c-7 0-13 6-13 13 0 7 6 13 13 13l256 0c7 0 12-6 12-13 0-7-5-13-12-13z m0-102l-256 0c-7 0-13 6-13 13 0 7 6 12 13 12l256 0c7 0 12-5 12-12 0-7-5-13-12-13z m-342 86l-30-30 0 220 30-29c2-3 6-4 9-4 3 0 6 1 9 4 5 5 5 13 0 18l-51 51c-5 5-13 5-18 0l-52-51c-5-5-5-13 0-18 5-5 13-5 18 0l30 29 0-220-30 30c-5 5-13 5-18 0-5-5-5-13 0-18l52-52c2-2 5-3 9-3 3 0 6 1 9 3l51 52c5 5 5 13 0 18-5 5-13 5-18 0z"/>
<glyph glyph-name="lighter" unicode="&#64;" d="M448 282l-18 0-22 44c-2 4-6 7-11 7l-103 0c-7 0-12-6-12-13l0-38-31 0-99 171c-4 6-11 8-18 4l-88-51c-6-3-8-11-5-17l102-178c3-4 7-6 12-6 2 0 4 0 6 2l69 40 0-209c0-7 6-12 13-12l205 0c7 0 13 5 13 12l0 231c0 7-6 13-13 13z m-13-154l-25 0 0 77 25 0z m-128 179l82 0 13-25-95 0z m-148-72l-89 155 66 39 90-156z m97-184l0 205 166 0c0 0 0 0 0 0 0 0 0 0 0 0l13 0 0-26-38 0c-7 0-13-5-13-12l0-103c0-7 6-13 13-13l38 0 0-51z m141 307c-19 0-29 9-33 17-9 15-7 36 4 67 8 20 17 37 18 38 2 4 6 6 11 6 4 0 9-2 11-6 0-1 10-18 17-38 12-31 13-52 5-67-5-8-14-17-33-17z m0 86c-2-3-3-7-5-11-12-32-8-42-6-45 1-1 2-4 11-4 8 0 10 3 11 4 1 3 5 13-7 45-1 4-3 8-4 11z"/>
<glyph glyph-name="license" unicode="&#91;" d="M474 51l-436 0c-21 0-38 17-38 39l0 332c0 22 17 39 38 39l436 0c21 0 38-17 38-39l0-332c0-22-17-39-38-39z m-436 384c-7 0-12-6-12-13l0-332c0-7 5-13 12-13l436 0c7 0 12 6 12 13l0 332c0 7-5 13-12 13z m205-77l-153 0c-7 0-13 6-13 13 0 7 6 13 13 13l153 0c7 0 13-6 13-13 0-7-6-13-13-13z m0-76l-153 0c-7 0-13 5-13 12 0 7 6 13 13 13l153 0c7 0 13-6 13-13 0-7-6-12-13-12z m0-52l-153 0c-7 0-13 6-13 13 0 7 6 13 13 13l153 0c7 0 13-6 13-13 0-7-6-13-13-13z m0-51l-153 0c-7 0-13 6-13 13 0 7 6 13 13 13l153 0c7 0 13-6 13-13 0-7-6-13-13-13z m-25-51l-128 0c-7 0-13 6-13 13 0 7 6 13 13 13l128 0c7 0 12-6 12-13 0-7-5-13-12-13z m241 216l-20 16-8 24-26 0-21 15-21-15-26 0-7-24-21-16 8-24-8-24 21-16 3-10c0 0 0-1 0-1l0-128c0-5 3-10 8-12 5-2 10-1 14 3l29 29 29-29c3-3 6-4 9-4 2 0 4 0 5 1 5 2 8 7 8 12l0 128c0 0 0 1 0 1l4 10 20 16-8 24 8 24z m-120-9l12 9 5 14 16 0 12 10 12-10 16 0 5-14 12-9-5-15 5-15-12-9-5-14-16 0-12-10-12 10-16 0-5 14-12 9 5 15z m54-147c-5 5-13 5-18 0l-17-16 0 84 5 0 21-15 21 15 5 0 0-84-17 16z"/>
<glyph glyph-name="leaf" unicode="&#93;" d="M509 507c-2 3-6 5-10 5l-13 0c-129 0-231 0-306-18-40-10-71-24-95-44-26-22-43-51-54-88-7-25-10-69 4-114 5-16 13-32 23-46-31-49-58-113-58-189 0-7 6-13 13-13 7 0 13 6 13 13 0 118 69 205 111 247 30 30 64 55 98 73 31 16 62 25 85 25 7 0 13 6 13 13 0 7-6 13-13 13-28 0-61-10-97-29-36-19-72-46-104-77-13-14-29-31-45-53-7 10-11 20-15 31-12 41-8 82-3 99 37 131 176 131 428 131-30-161-86-265-167-309-75-42-149-19-177-8-6 3-12 6-18 9-6 4-14 2-18-4-3-6-1-14 5-18 7-4 14-7 21-10 16-7 42-15 73-18 7-1 14-1 21-1 38 0 73 9 106 27 41 23 76 60 106 110 34 59 59 138 76 233 1 4 0 7-3 10z"/>
<glyph glyph-name="layers" unicode="&#94;" d="M256 205c-2 0-3 0-5 1l-243 102c-5 2-8 7-8 12 0 5 3 10 8 12l243 102c3 2 7 2 10 0l243-102c5-2 8-7 8-12 0-5-3-10-8-12l-243-102c-2-1-3-1-5-1z m-210 115l210-89 210 89-210 88z m210-192c-2 0-3 0-5 1l-243 102c-7 3-10 11-7 17 3 7 10 10 17 7l238-100 238 100c7 3 14 0 17-7 3-6 0-14-7-17l-243-102c-2-1-3-1-5-1z m0-77c-2 0-3 1-5 1l-243 103c-7 2-10 10-7 16 3 7 10 10 17 7l238-100 238 100c7 3 14 0 17-7 3-6 0-14-7-16l-243-103c-2 0-3-1-5-1z"/>
<glyph glyph-name="laptop-phone" unicode="&#95;" d="M294 154l-204 0c-22 0-39 17-39 38l0 205c0 21 17 38 39 38l332 0c22 0 39-17 39-38l0-26c0-7-6-13-13-13-7 0-13 6-13 13l0 26c0 7-6 13-13 13l-332 0c-7 0-13-6-13-13l0-205c0-7 6-13 13-13l204 0c7 0 13-6 13-13 0-7-6-12-13-12z m0-103l-256 0c-21 0-38 17-38 39l0 25c0 7 6 13 13 13l281 0c7 0 13-6 13-13 0-7-6-13-13-13l-268 0 0-12c0-7 5-13 12-13l256 0c7 0 13-6 13-13 0-7-6-13-13-13z m180 0l-103 0c-21 0-38 17-38 39l0 204c0 22 17 39 38 39l103 0c21 0 38-17 38-39l0-204c0-22-17-39-38-39z m-103 256c-7 0-13-6-13-13l0-204c0-7 6-13 13-13l103 0c7 0 12 6 12 13l0 204c0 7-5 13-12 13z m51-205c-3 0-6 2-9 4-2 3-3 6-3 9 0 4 1 7 3 9 3 3 6 4 9 4 4 0 7-1 9-4 3-2 4-5 4-9 0-3-1-6-4-9-2-2-5-4-9-4z"/>
<glyph glyph-name="laptop" unicode="&#96;" d="M90 154l332 0c22 0 39 17 39 38l0 205c0 21-17 38-39 38l-332 0c-22 0-39-17-39-38l0-205c0-21 17-38 39-38z m-13 243c0 7 6 13 13 13l332 0c7 0 13-6 13-13l0-205c0-7-6-13-13-13l-332 0c-7 0-13 6-13 13z m422-269l-486 0c-7 0-13-6-13-13l0-25c0-22 17-39 38-39l436 0c21 0 38 17 38 39l0 25c0 7-6 13-13 13z m-25-51l-436 0c-7 0-12 6-12 13l0 12 460 0 0-12c0-7-5-13-12-13z"/>
<glyph glyph-name="keyboard" unicode="&#123;" d="M448 102l-410 0c-21 0-38 18-38 39l0 205c0 21 17 38 38 38l410 0c21 0 38-17 38-38l0-205c0-21-17-39-38-39z m-410 256c-7 0-12-5-12-12l0-205c0-7 5-13 12-13l410 0c7 0 13 6 13 13l0 205c0 7-6 12-13 12z m52-51l-26 0c-7 0-13 6-13 13 0 7 6 13 13 13l26 0c7 0 12-6 12-13 0-7-5-13-12-13z m332 0l-25 0c-7 0-13 6-13 13 0 7 6 13 13 13l25 0c7 0 13-6 13-13 0-7-6-13-13-13z m-307-51l-51 0c-7 0-13 6-13 13 0 7 6 13 13 13l51 0c7 0 13-6 13-13 0-7-6-13-13-13z m-25-102l-26 0c-7 0-13 5-13 12 0 7 6 13 13 13l26 0c7 0 12-6 12-13 0-7-5-12-12-12z m204 0l-153 0c-7 0-13 5-13 12 0 7 6 13 13 13l153 0c7 0 13-6 13-13 0-7-6-12-13-12z m77 0l-25 0c-7 0-13 5-13 12 0 7 6 13 13 13l25 0c7 0 13-6 13-13 0-7-6-12-13-12z m51 51l-76 0c-7 0-13 6-13 13 0 7 6 12 13 12l64 0 0 39c0 7 5 13 12 13 7 0 13-6 13-13l0-51c0-7-6-13-13-13z m-281 0l-77 0c-7 0-13 6-13 13 0 7 6 12 13 12l77 0c7 0 13-5 13-12 0-7-6-13-13-13z m13 115c0-7-6-13-13-13-7 0-13 6-13 13 0 7 6 13 13 13 7 0 13-6 13-13z m51 0c0-7-6-13-13-13-7 0-13 6-13 13 0 7 6 13 13 13 7 0 13-6 13-13z m51 0c0-7-6-13-13-13-7 0-13 6-13 13 0 7 6 13 13 13 7 0 13-6 13-13z m51 0c0-7-6-13-13-13-7 0-12 6-12 13 0 7 5 13 12 13 7 0 13-6 13-13z m51 0c0-7-5-13-12-13-7 0-13 6-13 13 0 7 6 13 13 13 7 0 12-6 12-13z m-179-51c0-7-6-13-13-13-7 0-12 6-12 13 0 7 5 13 12 13 7 0 13-6 13-13z m51 0c0-7-5-13-12-13-7 0-13 6-13 13 0 7 6 13 13 13 7 0 12-6 12-13z m52 0c0-7-6-13-13-13-7 0-13 6-13 13 0 7 6 13 13 13 7 0 13-6 13-13z m51 0c0-7-6-13-13-13-7 0-13 6-13 13 0 7 6 13 13 13 7 0 13-6 13-13z m51 0c0-7-6-13-13-13-7 0-13 6-13 13 0 7 6 13 13 13 7 0 13-6 13-13z m-179-51c0-7-6-13-13-13-7 0-13 6-13 13 0 7 6 12 13 12 7 0 13-5 13-12z m51 0c0-7-6-13-13-13-7 0-13 6-13 13 0 7 6 12 13 12 7 0 13-5 13-12z m51 0c0-7-6-13-13-13-7 0-12 6-12 13 0 7 5 12 12 12 7 0 13-5 13-12z"/>
<glyph glyph-name="italic" unicode="&#124;" d="M397 461l-103 0c0 0 0 0 0 0l-102 0c-7 0-13-6-13-13 0-7 6-13 13-13l87 0-72-358-92 0c-7 0-13-6-13-13 0-7 6-13 13-13l103 0c0 0 0 0 0 0 0 0 0 0 0 0l102 0c7 0 13 6 13 13 0 7-6 13-13 13l-87 0 72 358 92 0c7 0 13 6 13 13 0 7-6 13-13 13z"/>
<glyph glyph-name="indent-increase" unicode="&#125;" d="M448 384l-384 0c-7 0-13 6-13 13 0 7 6 13 13 13l384 0c7 0 13-6 13-13 0-7-6-13-13-13z m0-77l-205 0c-7 0-13 6-13 13 0 7 6 13 13 13l205 0c7 0 13-6 13-13 0-7-6-13-13-13z m0-77l-205 0c-7 0-13 6-13 13 0 7 6 13 13 13l205 0c7 0 13-6 13-13 0-7-6-13-13-13z m0-76l-205 0c-7 0-13 5-13 12 0 7 6 13 13 13l205 0c7 0 13-6 13-13 0-7-6-12-13-12z m0-77l-384 0c-7 0-13 6-13 13 0 7 6 12 13 12l384 0c7 0 13-5 13-12 0-7-6-13-13-13z m-384 77c-2 0-4 0-6 1-4 2-7 7-7 11l0 154c0 5 3 9 7 11 5 3 10 2 14-1l102-77c3-2 5-6 5-10 0-4-2-8-5-10l-102-77c-3-2-5-2-8-2z m13 140l0-102 68 51z"/>
<glyph glyph-name="indent-decrease" unicode="&#126;" d="M448 384l-384 0c-7 0-13 6-13 13 0 7 6 13 13 13l384 0c7 0 13-6 13-13 0-7-6-13-13-13z m0-77l-205 0c-7 0-13 6-13 13 0 7 6 13 13 13l205 0c7 0 13-6 13-13 0-7-6-13-13-13z m0-77l-205 0c-7 0-13 6-13 13 0 7 6 13 13 13l205 0c7 0 13-6 13-13 0-7-6-13-13-13z m0-76l-205 0c-7 0-13 5-13 12 0 7 6 13 13 13l205 0c7 0 13-6 13-13 0-7-6-12-13-12z m0-77l-384 0c-7 0-13 6-13 13 0 7 6 12 13 12l384 0c7 0 13-5 13-12 0-7-6-13-13-13z m-282 77c-2 0-5 0-7 2l-103 77c-3 2-5 6-5 10 0 4 2 8 5 10l103 77c4 3 9 4 13 1 4-2 7-6 7-11l0-154c0-4-3-9-7-11-2-1-4-1-6-1z m-81 89l69-51 0 102z"/>
<glyph glyph-name="inbox" unicode="&#92;" d="M501 246l-69 158c-8 18-29 31-48 31l-256 0c-19 0-40-13-48-31l-69-158c-6-14-11-38-11-54l0-102c0-22 17-39 38-39l436 0c21 0 38 17 38 39l0 102c0 16-5 40-11 54z m-397 148c3 8 15 16 24 16l256 0c9 0 21-8 24-16l69-158c1-2 2-4 2-6-1 0-3 0-5 0l-154 0c-7 0-13-5-13-12l0-13c0-28-23-51-51-51-28 0-51 23-51 51l0 13c0 7-6 12-13 12l-154 0c-2 0-4 0-5 0 0 2 1 4 2 6z m382-304c0-7-5-13-12-13l-436 0c-7 0-12 6-12 13l0 102c0 7 5 13 12 13l141 0c0-43 35-77 77-77 42 0 77 34 77 77l141 0c7 0 12-6 12-13z"/>
<glyph glyph-name="hourglass" unicode="&#57344;" d="M410 422l0 13c0 10-7 19-19 26-9 5-21 10-36 14-30 7-70 11-112 11-42 0-82-4-112-11-15-4-27-9-36-14-12-7-18-16-18-26l0-13c0-67 41-128 102-153l0-51c-61-26-102-87-102-154l0-13c0-10 6-19 18-26 9-5 21-10 36-13 30-8 70-12 112-12 42 0 82 4 112 12 15 3 27 8 36 13 12 7 19 16 19 26l0 13c0 67-41 128-103 154l0 51c62 25 103 86 103 153z m-266 29c27 6 62 10 99 10 37 0 72-4 100-10 29-6 38-13 40-16-2-2-11-9-40-16-28-6-63-9-100-9-37 0-72 3-99 9-30 7-39 14-41 16 2 3 11 10 41 16z m146-254c56-20 94-73 94-133l0-12c-1-2-8-10-41-17-28-6-63-9-100-9-37 0-72 3-99 9-33 7-41 15-42 17l0 12c0 60 38 113 94 133 5 2 9 6 9 12l0 69c0 5-4 10-9 12-50 17-86 63-92 115 7-4 17-7 27-9 30-8 70-12 112-12 42 0 82 4 112 12 11 2 20 5 28 9-7-52-42-98-93-115-5-2-8-7-8-12l0-69c0-6 3-10 8-12z m60-108c-58 20-94 70-94 129l0 77c15 2 30 6 44 13 6 3 9 11 6 17-3 6-11 9-17 6-14-7-30-11-46-11-16 0-31 4-45 11-7 3-14 0-17-6-4-6-1-14 5-17 14-7 29-11 44-13l0-77c0-59-36-109-93-129-6-2-9-7-9-13 0-6 4-10 10-12 25-5 63-13 105-13 42 0 80 8 105 13 6 2 10 6 10 12 1 6-3 11-8 13z m-107-12c-22 0-43 2-62 5 17 11 32 24 44 40 7 10 13 21 18 32 5-11 11-22 19-32 12-16 27-29 44-40-19-3-40-5-63-5z"/>
<glyph glyph-name="linearicons" unicode="&#57345;" d="M499 102l-13 0c-14 0-25-16-25-38 0-7-6-13-13-13-7 0-13 6-13 13l0 26c0 7-6 12-13 12-3 0-6-1-9-3-5 2-10 3-16 3-21 0-39-17-39-38 0-4 1-9 3-13l-28 0c-11 0-26 7-33 15l-27 30 236 267c4 4 4 11 0 16l-76 102c-3 4-7 5-11 5l-332 0c-4 0-8-1-11-5l-76-102c-4-5-4-12 0-16l236-267-27-30c-7-8-20-15-26-15l-7 0 0 13c0 21-17 38-38 38-7 0-14-2-20-5-3 3-7 5-12 5-8 0-14-6-18-11-4-5-8-12-11-19l-3-5 0 23c0 7-6 12-13 12-7 0-13-5-13-12l0-26c0-7-6-13-13-13-7 0-12 6-12 13l0 77c0 7-6 13-13 13-7 0-13-6-13-13l0-77c0-21 17-38 38-38 8 0 14 2 20 5 3-3 8-5 12-5 8 0 14 6 18 11 4 5 8 12 12 19l2 5 0-23c0-7 6-12 13-12 7 0 13 5 13 12l0 26c0 7 6 13 13 13 7 0 13-6 13-13l0-26c0-7 5-12 12-12l20 0c14 0 33 10 45 23l25 28 25-28c12-13 34-23 52-23l64 0c10 0 19 3 25 9 7-6 16-9 26-9 21 0 38 17 38 38 0 6 2 11 3 13l10 0c7 0 13 6 13 13 0 7-6 12-13 12z m-470 270l67 89 320 0 67-89-227-256z m368-321c-7 0-13 6-13 13 0 7 6 13 13 13 7 0 13-6 13-13 0-7-6-13-13-13z m-333 77c3 0 7 1 9 4 2 2 4 5 4 9 0 3-2 6-4 9-2 2-6 4-9 4-3 0-7-2-9-4-2-3-4-6-4-9 0-4 2-7 4-9 2-3 6-4 9-4z"/>
<glyph glyph-name="link" unicode="&#57346;" d="M273 179c-24 0-48 9-66 28-5 5-5 13 0 18 5 5 13 5 18 0 27-27 70-27 97 0l93 93c27 27 27 70 0 97-27 27-70 27-97 0l-79-78c-5-5-13-5-18 0-5 5-5 13 0 18l79 78c37 37 96 37 133 0 37-37 37-96 0-133l-93-93c-18-19-42-28-67-28z m-153-153c-24 0-48 9-67 27-37 37-37 97 0 134l93 93c37 36 97 36 134 0 5-5 5-14 0-18-5-5-14-5-19 0-26 26-70 26-97 0l-93-94c-26-26-26-70 0-97 27-26 71-26 97 0l79 79c5 5 13 5 18 0 5-5 5-13 0-18l-79-79c-18-18-42-27-66-27z"/>
<glyph glyph-name="list" unicode="&#57347;" d="M499 102l-384 0c-7 0-13 6-13 13 0 7 6 13 13 13l384 0c7 0 13-6 13-13 0-7-6-13-13-13z m0 128l-384 0c-7 0-13 6-13 13 0 7 6 13 13 13l384 0c7 0 13-6 13-13 0-7-6-13-13-13z m0 128l-384 0c-7 0-13 6-13 13 0 7 6 13 13 13l384 0c7 0 13-6 13-13 0-7-6-13-13-13z m-461-25c-21 0-38 17-38 38 0 21 17 39 38 39 22 0 39-18 39-39 0-21-17-38-39-38z m0 51c-7 0-12-6-12-13 0-7 5-13 12-13 7 0 13 6 13 13 0 7-6 13-13 13z m0-179c-21 0-38 17-38 38 0 21 17 39 38 39 22 0 39-18 39-39 0-21-17-38-39-38z m0 51c-7 0-12-6-12-13 0-7 5-13 12-13 7 0 13 6 13 13 0 7-6 13-13 13z m0-179c-21 0-38 17-38 38 0 21 17 39 38 39 22 0 39-18 39-39 0-21-17-38-39-38z m0 51c-7 0-12-6-12-13 0-7 5-13 12-13 7 0 13 6 13 13 0 7-6 13-13 13z"/>
<glyph glyph-name="location" unicode="&#57348;" d="M218 0c-1 0-3 0-4 0-5 2-9 7-9 13l0 192-192 0c-6 0-11 4-13 9-1 6 1 12 6 15l487 281c5 3 11 2 15-2 4-4 5-10 2-15l-281-487c-3-4-7-6-11-6z m-158 230l158 0c7 0 12-5 12-12l0-158 234 404z"/>
<glyph glyph-name="lock" unicode="&#57349;" d="M371 307l-13 0 0 39c0 63-51 115-115 115-63 0-115-52-115-115l0-39-13 0c-21 0-38-17-38-38l0-205c0-21 17-38 38-38l256 0c21 0 39 17 39 38l0 205c0 21-18 38-39 38z m-217 39c0 49 40 89 89 89 50 0 90-40 90-89l0-39-179 0z m230-282c0-7-6-13-13-13l-256 0c-7 0-13 6-13 13l0 205c0 7 6 13 13 13l256 0c7 0 13-6 13-13z"/>
<glyph glyph-name="magic-wand" unicode="&#57350;" d="M294 333c-7 0-12 6-12 13 0 35-29 64-64 64-7 0-13 5-13 12 0 7 6 13 13 13 35 0 64 29 64 64 0 7 5 13 12 13 7 0 13-6 13-13 0-35 29-64 64-64 7 0 13-6 13-13 0-7-6-12-13-12-35 0-64-29-64-64 0-7-6-13-13-13z m-30 89c12-7 23-18 30-30 8 12 19 23 31 30-12 8-23 19-31 31-7-12-18-23-30-31z m-226-166c-7 0-12 6-12 13 0 7-6 13-13 13-7 0-13 5-13 12 0 7 6 13 13 13 7 0 13 6 13 13 0 7 5 13 12 13 7 0 13-6 13-13 0-7 6-13 13-13 7 0 13-6 13-13 0-7-6-12-13-12-7 0-13-6-13-13 0-7-6-13-13-13z m427-152l-271 271c-8 7-17 11-28 11-10 0-20-4-27-11l-15-15c-7-7-11-17-11-27 0-10 4-20 11-27l271-271c7-8 17-12 27-12 11 0 20 4 28 12l15 15c7 7 11 17 11 27 0 10-4 20-11 27z m-323 238l15 15c3 2 6 4 9 4 4 0 7-2 9-4l37-37-33-33-37 37c-5 5-5 13 0 18z m304-274l-15-15c-2-3-5-4-9-4-3 0-6 1-9 4l-216 216 33 33 216-216c5-5 5-13 0-18z m-356 316c-7 0-13 6-13 13 0 21-17 38-39 38-7 0-12 6-12 13 0 7 5 13 12 13 22 0 39 17 39 38 0 7 6 13 13 13 7 0 12-6 12-13 0-21 18-38 39-38 7 0 13-6 13-13 0-7-6-13-13-13-21 0-39-17-39-38 0-7-5-13-12-13z m-13 64c5-4 9-8 13-13 3 5 8 9 12 13-4 4-9 8-12 13-4-5-8-9-13-13z m13-320c-7 0-13 6-13 13 0 21-17 38-39 38-7 0-12 6-12 13 0 7 5 13 12 13 22 0 39 17 39 38 0 7 6 13 13 13 7 0 12-6 12-13 0-21 18-38 39-38 7 0 13-6 13-13 0-7-6-13-13-13-21 0-39-17-39-38 0-7-5-13-12-13z m-13 64c5-4 9-8 13-13 3 5 8 9 12 13-4 4-9 8-12 13-4-5-8-9-13-13z"/>
<glyph glyph-name="magnifier" unicode="&#57351;" d="M483 21l-152 166c34 36 53 83 53 133 0 51-20 100-56 136-36 36-85 56-136 56-51 0-99-20-136-56-36-37-56-85-56-136 0-51 20-100 56-136 37-36 85-56 136-56 44 0 86 15 120 42l152-166c3-3 6-4 10-4 3 0 6 1 8 3 6 5 6 13 1 18z m-457 299c0 92 74 166 166 166 92 0 166-74 166-166 0-92-74-166-166-166-92 0-166 74-166 166z"/>
<glyph glyph-name="map" unicode="&#57352;" d="M480 484c-3 3-8 3-12 1l-148-74-148 74c-3 2-8 2-11 0l-154-77c-4-2-7-6-7-11l0-384c0-5 2-9 6-11 2-1 4-2 7-2 2 0 4 0 6 1l147 74 148-74c4-1 8-1 12 0l153 77c5 2 7 7 7 12l0 384c0 4-2 8-6 10z m-326-386l-128-64 0 355 128 64z m25 355l128-64 0-355-128 64z m282-355l-128-64 0 355 128 64z"/>
<glyph glyph-name="map-marker" unicode="&#57353;" d="M256 0c-4 0-8 2-10 5-2 2-36 46-72 112-20 39-37 77-49 113-15 46-23 89-23 128 0 85 69 154 154 154 85 0 154-69 154-154 0-39-8-82-23-128-12-36-28-74-49-113-36-66-70-110-72-112-2-3-6-5-10-5z m0 486c-71 0-128-57-128-128 0-83 37-170 69-229 23-43 46-77 59-95 13 18 36 53 59 96 32 58 69 145 69 228 0 71-57 128-128 128z m0-204c-42 0-77 34-77 76 0 43 35 77 77 77 42 0 77-34 77-77 0-42-35-76-77-76z m0 128c-28 0-51-23-51-52 0-28 23-51 51-51 28 0 51 23 51 51 0 29-23 52-51 52z"/>
<glyph glyph-name="menu" unicode="&#57354;" d="M448 358l-384 0c-7 0-13 6-13 13 0 7 6 13 13 13l384 0c7 0 13-6 13-13 0-7-6-13-13-13z m0-128l-384 0c-7 0-13 6-13 13 0 7 6 13 13 13l384 0c7 0 13-6 13-13 0-7-6-13-13-13z m0-128l-384 0c-7 0-13 6-13 13 0 7 6 13 13 13l384 0c7 0 13-6 13-13 0-7-6-13-13-13z"/>
<glyph glyph-name="menu-circle" unicode="&#57355;" d="M243 0c-65 0-126 25-172 71-46 46-71 107-71 172 0 65 25 126 71 172 46 46 107 71 172 71 65 0 126-25 172-71 46-46 71-107 71-172 0-65-25-126-71-172-46-46-107-71-172-71z m0 461c-120 0-217-98-217-218 0-120 97-217 217-217 120 0 218 97 218 217 0 120-98 218-218 218z m128-154l-256 0c-7 0-13 6-13 13 0 7 6 13 13 13l256 0c7 0 13-6 13-13 0-7-6-13-13-13z m0-77l-256 0c-7 0-13 6-13 13 0 7 6 13 13 13l256 0c7 0 13-6 13-13 0-7-6-13-13-13z m0-76l-256 0c-7 0-13 5-13 12 0 7 6 13 13 13l256 0c7 0 13-6 13-13 0-7-6-12-13-12z"/>
<glyph glyph-name="mic" unicode="&#57356;" d="M243 154c-49 0-89 40-89 89l0 154c0 49 40 89 89 89 50 0 90-40 90-89l0-154c0-49-40-89-90-89z m0 307c-35 0-64-29-64-64l0-154c0-35 29-64 64-64 35 0 64 29 64 64l0 154c0 35-29 64-64 64z m167-218c0 7-6 13-13 13-7 0-13-6-13-13 0-77-63-141-141-141-77 0-141 64-141 141 0 7-5 13-12 13-7 0-13-6-13-13 0-87 68-159 153-166l0-51-38 0c-7 0-13-6-13-13 0-7 6-13 13-13l102 0c7 0 13 6 13 13 0 7-6 13-13 13l-38 0 0 51c86 7 154 79 154 166z"/>
<glyph glyph-name="moon" unicode="&#57357;" d="M262 0c-70 0-136 27-185 77-50 49-77 115-77 185 0 58 19 112 54 158 16 21 36 40 59 56 23 16 49 28 75 35 5 2 11 0 14-4 3-4 4-9 1-14-16-32-24-63-24-96 0-120 98-218 218-218 34 0 64 8 96 24 5 3 10 2 14-1 4-3 6-9 5-14-8-27-20-52-36-75-16-23-35-43-56-60-46-35-100-53-158-53z m-94 477c-86-37-142-120-142-215 0-130 106-236 236-236 95 0 178 56 215 142-26-10-53-14-80-14-65 0-126 25-172 71-46 46-71 107-71 172 0 27 4 54 14 80z"/>
<glyph glyph-name="pilcrow" unicode="&#57358;" d="M397 461l-218 0c-56 0-102-46-102-103 0-56 46-102 102-102l26 0 0-192c0-7 6-13 13-13 7 0 12 6 12 13l0 371 77 0 0-371c0-7 6-13 13-13 7 0 13 6 13 13l0 371 64 0c7 0 13 6 13 13 0 7-6 13-13 13z m-192-179l-26 0c-42 0-77 34-77 76 0 43 35 77 77 77l26 0z"/>
<glyph glyph-name="pie-chart" unicode="&#57359;" d="M218 0c-59 0-113 23-154 64-41 41-64 95-64 154 0 58 23 112 64 153 41 42 95 64 154 64 7 0 12-6 12-13l0-192 192 0c7 0 13-5 13-12 0-59-22-113-64-154-41-41-95-64-153-64z m-13 409c-100-6-179-90-179-191 0-106 86-192 192-192 101 0 185 79 191 179l-191 0c-7 0-13 6-13 13z m269-153l-205 0c-7 0-13 6-13 13l0 205c0 7 6 12 13 12 58 0 113-22 154-63 41-41 63-96 63-154 0-7-5-13-12-13z m-192 26l178 0c-6 95-83 172-178 178z"/>
<glyph glyph-name="picture" unicode="&#57360;" d="M474 0l-436 0c-21 0-38 17-38 38l0 436c0 21 17 38 38 38l436 0c21 0 38-17 38-38l0-436c0-21-17-38-38-38z m-436 486c-7 0-12-5-12-12l0-436c0-7 5-12 12-12l436 0c7 0 12 5 12 12l0 436c0 7-5 12-12 12z m295-204c-28 0-51 23-51 51 0 28 23 51 51 51 28 0 51-23 51-51 0-28-23-51-51-51z m0 76c-14 0-26-11-26-25 0-14 12-26 26-26 14 0 25 12 25 26 0 14-11 25-25 25z m115 103l-384 0c-7 0-13-6-13-13l0-307c0-7 6-13 13-13l384 0c7 0 13 6 13 13l0 307c0 7-6 13-13 13z m-371-248l82 92c2 3 5 4 8 4 3 0 5-1 7-4l142-151-239 0z m358-59l-84 0-158 169c-7 7-16 12-27 11-10 0-19-4-26-12l-63-71 0 184 358 0z"/>
<glyph glyph-name="phone-handset" unicode="&#57361;" d="M410 0c-46 0-94 13-144 38-46 24-91 57-131 97-40 40-73 85-97 131-25 50-38 98-38 144 0 29 28 57 39 68 17 16 44 34 63 34 10 0 21-6 36-20 11-10 23-24 35-39 8-10 45-58 45-82 0-19-22-32-45-46-9-6-18-11-25-17-7-5-8-8-8-9 24-61 98-135 159-159 1 0 4 1 9 8 6 7 11 16 17 25 14 23 27 45 46 45 23 0 72-37 82-45 15-12 29-24 39-35 14-15 20-26 20-36 0-19-18-46-34-63-11-12-39-39-68-39z m-308 486c-7 0-25-8-45-27-19-17-31-36-31-49 0-173 212-384 384-384 13 0 32 12 49 31 19 20 27 38 27 45 0 5-14 24-51 52-31 25-57 38-64 38 0 0-3-1-9-9-5-6-10-15-16-23-14-24-27-46-47-46-3 0-6 1-9 2-68 27-147 106-174 174-3 8-4 20 12 35 9 7 20 15 32 22 8 5 17 10 23 15 8 6 9 9 9 9 0 7-13 33-38 64-28 37-47 51-52 51z"/>
<glyph glyph-name="phone" unicode="&#57362;" d="M458 284c-27 0-75 10-90 25-9 9-11 21-13 30-2 11-4 15-9 17-23 10-56 16-91 16-34 0-67-6-89-16-5-2-7-5-9-17-2-9-4-21-13-30-8-8-26-14-39-17-17-5-36-7-50-7-17 0-29 3-36 10-10 10-16 23-17 37-1 12 1 29 17 45 27 27 62 47 105 61 40 13 85 20 131 20 46 0 92-7 132-20 44-15 79-35 105-62 27-26 21-62 1-82-7-7-18-10-35-10z m-203 113c39 0 75-6 102-17 18-8 21-24 23-36 1-7 3-13 6-17 7-6 44-17 72-17 12 0 16 2 17 2 8 8 18 28-1 46-46 47-128 74-219 74-91 0-172-27-218-73-7-7-10-16-10-25 1-7 5-15 10-21 1 0 5-3 18-3 28 0 65 11 71 17 4 4 5 10 6 17 2 12 5 28 23 36 27 11 62 17 100 17z m167-346l-332 0c-18 0-33 7-45 19-12 12-17 29-17 46 1 2 3 49 33 96 17 27 41 50 69 66 35 19 77 29 126 29 49 0 91-10 126-29 28-16 52-39 69-66 30-48 32-94 33-96 0-17-5-34-17-46-12-12-27-19-45-19z m-166 231c-80 0-138-28-173-83-26-42-29-84-29-85-1-10 3-19 10-26 6-7 16-11 26-11l332 0c10 0 20 4 26 11 7 7 11 16 10 26 0 1-3 43-29 85-35 55-93 83-173 83z m0-180c-42 0-77 35-77 77 0 43 35 77 77 77 42 0 77-34 77-77 0-42-35-77-77-77z m0 128c-28 0-51-23-51-51 0-28 23-51 51-51 28 0 51 23 51 51 0 28-23 51-51 51z"/>
<glyph glyph-name="pencil" unicode="&#57363;" d="M489 489c-14 14-33 22-54 22-20 0-39-8-54-22l-326-326c-1-2-2-3-3-5l-51-141c-2-5-1-10 3-13 2-3 5-4 9-4 1 0 3 0 4 1l141 51c2 1 3 2 5 3l326 326c14 15 22 34 22 54 0 21-8 40-22 54z m-342-414l-113-41 41 113 283 283 72-72z m324 324l-23-22-71 71 22 23c10 10 23 15 36 15 14 0 26-5 36-15 9-10 15-22 15-36 0-13-6-26-15-36z"/>
<glyph glyph-name="paw" unicode="&#57364;" d="M77 205c-29 0-51 34-51 77 0 43 22 77 51 77 29 0 51-34 51-77 0-43-22-77-51-77z m0 128c-12 0-26-22-26-51 0-30 14-52 26-52 12 0 25 22 25 52 0 29-13 51-25 51z m102-26c-29 0-51 34-51 77 0 43 22 77 51 77 29 0 51-34 51-77 0-43-22-77-51-77z m0 128c-12 0-25-22-25-51 0-29 13-51 25-51 12 0 26 22 26 51 0 29-14 51-26 51z m128-128c-29 0-51 34-51 77 0 43 22 77 51 77 29 0 51-34 51-77 0-43-22-77-51-77z m0 128c-12 0-25-22-25-51 0-29 13-51 25-51 12 0 26 22 26 51 0 29-14 51-26 51z m103-230c-29 0-52 34-52 77 0 43 23 77 52 77 28 0 51-34 51-77 0-43-23-77-51-77z m0 128c-12 0-26-22-26-51 0-30 14-52 26-52 12 0 25 22 25 52 0 29-13 51-25 51z m-77-282c-22 0-37 8-51 14-12 6-23 12-39 12-16 0-27-6-39-12-13-6-28-14-50-14-15 0-28 8-37 21-16 24-16 60-1 99 28 70 74 111 127 111 53 0 99-41 127-111 16-39 16-75 0-99-10-13-23-21-37-21z m-90 51c22 0 38-7 51-14 12-6 23-11 39-11 5 0 11 3 15 10 11 16 11 44-1 75-24 60-62 94-104 94-41 0-79-34-103-94-12-31-13-59-2-75 4-7 10-10 16-10 16 0 26 5 39 11 13 7 28 14 50 14z"/>
<glyph glyph-name="paperclip" unicode="&#57365;" d="M243 0c-63 0-115 52-115 115l0 307c0 50 40 90 90 90 49 0 89-40 89-90l0-281c0-35-29-64-64-64-35 0-64 29-64 64l0 153c0 7 6 13 13 13 7 0 13-6 13-13l0-153c0-21 17-39 38-39 21 0 39 18 39 39l0 281c0 36-29 64-64 64-36 0-64-28-64-64l0-307c0-49 40-89 89-89 50 0 90 40 90 89l0 179c0 7 6 13 13 13 7 0 12-6 12-13l0-179c0-63-51-115-115-115z"/>
<glyph glyph-name="page-break" unicode="&#57366;" d="M448 282l-384 0c-21 0-38 17-38 38l0 154c0 7 5 12 12 12 7 0 13-5 13-12l0-154c0-7 6-13 13-13l384 0c7 0 13 6 13 13l0 154c0 7 6 12 13 12 7 0 12-5 12-12l0-154c0-21-17-38-38-38z m-410-52l-25 0c-7 0-13 6-13 13 0 7 6 13 13 13l25 0c7 0 13-6 13-13 0-7-6-13-13-13z m77 0l-25 0c-7 0-13 6-13 13 0 7 6 13 13 13l25 0c7 0 13-6 13-13 0-7-6-13-13-13z m77 0l-26 0c-7 0-12 6-12 13 0 7 5 13 12 13l26 0c7 0 13-6 13-13 0-7-6-13-13-13z m77 0l-26 0c-7 0-13 6-13 13 0 7 6 13 13 13l26 0c7 0 13-6 13-13 0-7-6-13-13-13z m77 0l-26 0c-7 0-13 6-13 13 0 7 6 13 13 13l26 0c7 0 12-6 12-13 0-7-5-13-12-13z m76 0l-25 0c-7 0-13 6-13 13 0 7 6 13 13 13l25 0c7 0 13-6 13-13 0-7-6-13-13-13z m77 0l-25 0c-7 0-13 6-13 13 0 7 6 13 13 13l25 0c7 0 13-6 13-13 0-7-6-13-13-13z m-25-230c-7 0-13 6-13 13l0 153c0 7-6 13-13 13l-384 0c-7 0-13-6-13-13l0-153c0-7-6-13-13-13-7 0-12 6-12 13l0 153c0 22 17 39 38 39l384 0c21 0 38-17 38-39l0-153c0-7-5-13-12-13z"/>
<glyph glyph-name="neutral" unicode="&#57367;" d="M243 0c-65 0-126 25-172 71-46 46-71 107-71 172 0 65 25 126 71 172 46 46 107 71 172 71 65 0 126-25 172-71 46-46 71-107 71-172 0-65-25-126-71-172-46-46-107-71-172-71z m0 461c-120 0-217-98-217-218 0-120 97-217 217-217 120 0 218 97 218 217 0 120-98 218-218 218z m103-282l-205 0c-7 0-13 6-13 13 0 7 6 13 13 13l205 0c7 0 12-6 12-13 0-7-5-13-12-13z m-26 128c-21 0-38 17-38 39 0 21 17 38 38 38 21 0 38-17 38-38 0-22-17-39-38-39z m0 51c-7 0-13-5-13-12 0-7 6-13 13-13 7 0 13 6 13 13 0 7-6 12-13 12z m-154-51c-21 0-38 17-38 39 0 21 17 38 38 38 22 0 39-17 39-38 0-22-17-39-39-39z m0 51c-7 0-12-5-12-12 0-7 5-13 12-13 7 0 13 6 13 13 0 7-6 12-13 12z"/>
<glyph glyph-name="mustache" unicode="&#57368;" d="M243 0c-65 0-126 25-172 71-46 46-71 107-71 172 0 65 25 126 71 172 46 46 107 71 172 71 65 0 126-25 172-71 46-46 71-107 71-172 0-65-25-126-71-172-46-46-107-71-172-71z m0 461c-120 0-217-98-217-218 0-120 97-217 217-217 120 0 218 97 218 217 0 120-98 218-218 218z m-77-154c-21 0-38 17-38 39 0 21 17 38 38 38 22 0 39-17 39-38 0-22-17-39-39-39z m0 51c-7 0-12-5-12-12 0-7 5-13 12-13 7 0 13 6 13 13 0 7-6 12-13 12z m154-51c-21 0-38 17-38 39 0 21 17 38 38 38 21 0 38-17 38-38 0-22-17-39-38-39z m0 51c-7 0-13-5-13-12 0-7 6-13 13-13 7 0 13 6 13 13 0 7-6 12-13 12z m88-159c-3 4-9 7-14 6-4-1-9-2-13-2-23 0-36 13-51 27-13 13-27 26-48 26-16 0-29-7-39-17-9 10-23 17-38 17-21 0-35-13-49-26-14-14-28-27-50-27-4 0-9 1-14 2-5 1-10-2-13-6-3-5-3-10 0-15 30-39 68-47 95-47 16 0 28 3 34 4 14 4 26 14 35 27 9-13 22-23 35-27 6-1 19-4 35-4 26 0 64 8 94 47 3 5 4 10 1 15z m-207-33c-5-2-15-4-27-4-15 0-35 3-53 17 24 4 40 20 53 32 12 12 21 19 31 19 14 0 25-11 25-25 0-16-14-35-29-39z m112-4c-13 0-23 2-28 4-15 4-29 23-29 39 0 14 11 25 26 25 10 0 18-7 31-19 13-12 29-28 53-32-19-13-38-17-53-17z"/>
<glyph glyph-name="move" unicode="&#57369;" d="M470 252l-77 77c-5 5-13 5-18 0-5-5-5-13 0-18l55-55-174 0 0 174 55-55c2-3 6-4 9-4 3 0 7 2 9 4 5 5 5 13 0 18l-77 77c-5 5-13 5-18 0l-77-77c-5-5-5-13 0-18 5-5 13-5 18 0l55 55 0-174-173 0 54 55c5 5 5 13 0 18-5 5-13 5-18 0l-76-77c-5-5-5-13 0-18l76-77c3-2 6-3 9-3 4 0 7 1 9 3 5 5 5 13 0 18l-54 55 173 0 0-174-55 55c-5 5-13 5-18 0-5-5-5-13 0-18l77-76c3-3 6-4 9-4 4 0 7 1 9 4l77 76c5 5 5 13 0 18-5 5-13 5-18 0l-55-55 0 174 174 0-55-55c-5-5-5-13 0-18 3-2 6-3 9-3 3 0 7 1 9 3l77 77c5 5 5 13 0 18z"/>
<glyph glyph-name="plus-circle" unicode="&#57370;" d="M415 415c-46 46-107 71-172 71-65 0-126-25-172-71-46-46-71-107-71-172 0-65 25-126 71-172 46-46 107-71 172-71 65 0 126 25 172 71 46 46 71 107 71 172 0 65-25 126-71 172z m-172-389c-120 0-217 97-217 217 0 120 97 218 217 218 120 0 218-98 218-218 0-120-98-217-218-217z m154 230l-141 0 0 141c0 7-6 13-13 13-7 0-13-6-13-13l0-141-140 0c-7 0-13-6-13-13 0-7 6-13 13-13l140 0 0-140c0-7 6-13 13-13 7 0 13 6 13 13l0 140 141 0c7 0 13 6 13 13 0 7-6 13-13 13z"/>
<glyph glyph-name="pointer-down" unicode="&#57371;" d="M435 205c-10 0-20 3-28 8-7-19-26-34-49-34-10 0-20 3-28 9-7-20-26-34-48-34-10 0-18 2-26 6l0-83c0-28-23-51-51-51-28 0-51 23-51 51l0 189-35-60c-7-12-17-21-31-25-12-3-26-1-37 6-23 14-32 45-20 70 1 1 17 35 68 137 24 48 51 82 79 102 22 15 37 16 40 16l128 0c21 0 41-6 59-19 18-12 33-29 45-52 24-44 36-108 36-185 0-28-23-51-51-51z m-8 224c-14 26-39 57-81 57l-128 0c-1 0-12-1-28-13-16-12-41-38-68-91-52-103-68-136-68-136 0 0 0-1 0-1-6-12-2-29 10-36 6-4 12-4 18-3 6 2 11 6 15 12 0 0 0 0 0 1l40 69c8 15 17 21 27 18 10-2 15-12 15-29l0-200c0-14 12-26 26-26 14 0 25 12 25 26l0 166c0 7 6 13 13 13 7 0 13-6 13-13l0-38c0-14 12-26 26-26 14 0 25 12 25 26l0 38c0 7 6 13 13 13 7 0 13-6 13-13l0-13c0-14 11-25 25-25 15 0 26 11 26 25l0 39c0 7 6 13 13 13 7 0 13-6 13-13l0-13c0-14 11-26 25-26 14 0 26 12 26 26 0 72-12 132-34 173z"/>
<glyph glyph-name="pointer-left" unicode="&#57372;" d="M205 77c0 10 3 20 8 28-19 7-34 26-34 49 0 10 3 20 9 28-20 7-34 26-34 48 0 10 2 18 6 26l-83 0c-28 0-51 23-51 51 0 28 23 51 51 51l189 0-60 35c-12 7-21 17-25 31-3 12-1 26 6 37 14 23 45 32 70 20 1-1 35-17 137-68 48-24 82-51 102-79 15-22 16-37 16-40l0-128c0-21-6-41-19-59-12-18-29-33-52-45-44-24-108-36-185-36-28 0-51 23-51 51z m224 8c26 14 57 39 57 81l0 128c0 1-1 12-13 28-12 16-38 41-91 68-103 52-136 68-136 68 0 0-1 0-1 0-12 6-29 2-36-10-4-6-4-12-3-18 2-6 6-11 12-15 0 0 0 0 1 0l69-40c15-8 21-17 18-27-2-10-12-15-29-15l-200 0c-14 0-26-12-26-26 0-14 12-25 26-25l166 0c7 0 13-6 13-13 0-7-6-13-13-13l-38 0c-14 0-26-12-26-26 0-14 12-25 26-25l38 0c7 0 13-6 13-13 0-7-6-13-13-13l-13 0c-14 0-25-11-25-25 0-15 11-26 25-26l39 0c7 0 13-6 13-13 0-7-6-13-13-13l-13 0c-14 0-26-11-26-25 0-14 12-26 26-26 72 0 132 12 173 34z"/>
<glyph glyph-name="pointer-right" unicode="&#57373;" d="M307 77c0 10-3 20-8 28 19 7 34 26 34 49 0 10-3 20-9 28 20 7 34 26 34 48 0 10-2 18-6 26l83 0c28 0 51 23 51 51 0 28-23 51-51 51l-189 0 60 35c12 7 21 17 25 31 3 12 1 26-6 37-14 23-45 32-70 20-1-1-35-17-137-68-48-24-82-51-102-79-15-22-16-37-16-40l0-128c0-21 6-41 19-59 12-18 29-33 52-45 44-24 108-36 185-36 28 0 51 23 51 51z m-224 8c-26 14-57 39-57 81l0 128c0 1 1 12 13 28 12 16 38 41 91 68 103 52 136 68 136 68 0 0 1 0 1 0 12 6 29 2 36-10 4-6 4-12 3-18-2-6-6-11-12-15 0 0 0 0-1 0l-69-40c-15-8-21-17-18-27 2-10 12-15 29-15l200 0c14 0 26-12 26-26 0-14-12-25-26-25l-166 0c-7 0-13-6-13-13 0-7 6-13 13-13l38 0c14 0 26-12 26-26 0-14-12-25-26-25l-38 0c-7 0-13-6-13-13 0-7 6-13 13-13l13 0c14 0 25-11 25-25 0-15-11-26-25-26l-39 0c-7 0-13-6-13-13 0-7 6-13 13-13l13 0c14 0 26-11 26-25 0-14-12-26-26-26-72 0-132 12-173 34z"/>
<glyph glyph-name="pointer-up" unicode="&#57374;" d="M435 307c-10 0-20-3-28-8-7 19-26 34-49 34-10 0-20-3-28-9-7 20-26 34-48 34-10 0-18-2-26-6l0 83c0 28-23 51-51 51-28 0-51-23-51-51l0-189-35 60c-7 12-17 21-31 25-12 3-26 1-37-6-23-14-32-45-20-70 1-1 17-35 68-137 24-48 51-82 79-102 22-15 37-16 40-16l128 0c21 0 41 6 59 19 18 12 33 29 45 52 24 44 36 108 36 185 0 28-23 51-51 51z m-8-224c-14-26-39-57-81-57l-128 0c-1 0-12 1-28 13-16 12-41 38-68 91-52 103-68 136-68 136 0 0 0 1 0 1-6 12-2 29 10 36 6 4 12 4 18 3 6-2 11-6 15-12 0 0 0 0 0-1l40-69c8-15 17-21 27-18 10 2 15 12 15 29l0 200c0 14 12 26 26 26 14 0 25-12 25-26l0-166c0-7 6-13 13-13 7 0 13 6 13 13l0 38c0 14 12 26 26 26 14 0 25-12 25-26l0-38c0-7 6-13 13-13 7 0 13 6 13 13l0 13c0 14 11 25 25 25 15 0 26-11 26-25l0-39c0-7 6-13 13-13 7 0 13 6 13 13l0 13c0 14 11 26 25 26 14 0 26-12 26-26 0-72-12-132-34-173z"/>
<glyph glyph-name="poop" unicode="&#57375;" d="M437 171c-2 2-4 3-6 4 24 19 30 40 30 55 0 37-31 68-82 88 3 9 5 18 5 28 0 49-40 89-90 89-17 0-38 5-38 26 0 11 15 24 20 28 5 3 7 9 5 14-2 5-7 9-12 9-40 0-82-13-113-36-17-12-29-25-39-40-10-17-15-34-15-52 0-7 1-15 2-22-22-10-40-24-53-40-17-20-25-43-25-66 0-14 3-28 9-42-23-22-35-47-35-73 0-39 26-75 74-102 45-25 106-39 169-39 66 0 125 9 167 24 63 23 76 55 76 78 0 19-8 46-49 69z m-35-123c-40-14-96-22-159-22-59 0-115 12-156 35-40 22-61 50-61 80 0 20 10 37 22 50 3-4 6-9 9-12 21-24 49-42 80-50 1-1 3-1 4-1 5 0 11 4 12 9 2 7-2 14-9 16-53 15-93 60-93 103 0 31 23 61 60 81 13-37 42-68 77-80 1-1 3-1 4-1 5 0 10 3 12 8 2 7-1 14-8 17-39 14-68 58-68 103 0 26 15 51 43 71 19 14 42 24 66 28-4-6-7-14-7-22 0-25 17-51 64-51 36 0 64-29 64-64 0-7-1-14-3-20-10 2-21 5-33 7-7 1-14-4-15-11-1-7 4-14 11-15 35-5 66-16 87-31 14-10 30-25 30-46 0-16-11-31-32-43-24 8-51 14-82 18-7 1-13-5-14-12-1-7 4-13 12-14 43-5 79-15 105-30 17-9 37-25 37-47 0-27-32-44-59-54z"/>
<glyph glyph-name="power-switch" unicode="&#57376;" d="M243 205c-7 0-13 6-13 13l0 230c0 7 6 13 13 13 7 0 13-6 13-13l0-230c0-7-6-13-13-13z m0-179c-51 0-99 20-136 56-36 36-56 84-56 136 0 42 14 82 39 115 25 33 60 57 98 69 7 2 14-2 16-9 2-7-2-14-8-16-70-21-119-86-119-159 0-92 74-167 166-167 92 0 167 75 167 167 0 73-49 138-119 159-7 2-11 9-9 16 2 7 9 11 16 9 39-12 74-36 98-69 26-33 39-73 39-115 0-52-20-100-56-136-36-36-85-56-136-56z"/>
<glyph glyph-name="printer" unicode="&#57377;" d="M474 410l-39 0 0 64c0 21-17 38-38 38l-282 0c-21 0-38-17-38-38l0-64-39 0c-21 0-38-18-38-39l0-230c0-21 17-39 38-39l39 0 0-64c0-21 17-38 38-38l282 0c21 0 38 17 38 38l0 64 39 0c21 0 38 18 38 39l0 230c0 21-17 39-38 39z m-372 64c0 7 6 12 13 12l282 0c7 0 13-5 13-12l0-64-308 0z m295-448l-282 0c-7 0-13 5-13 12l0 167 308 0 0-167c0-7-6-12-13-12z m89 115c0-7-5-13-12-13l-39 0 0 77 13 0c7 0 13 6 13 13 0 7-6 12-13 12l-384 0c-7 0-13-5-13-12 0-7 6-13 13-13l13 0 0-77-39 0c-7 0-12 6-12 13l0 230c0 7 5 13 12 13l436 0c7 0 12-6 12-13z m-115 13l-230 0c-7 0-13 5-13 12 0 7 6 13 13 13l230 0c7 0 13-6 13-13 0-7-6-12-13-12z m0-52l-230 0c-7 0-13 6-13 13 0 7 6 13 13 13l230 0c7 0 13-6 13-13 0-7-6-13-13-13z m0-51l-230 0c-7 0-13 6-13 13 0 7 6 13 13 13l230 0c7 0 13-6 13-13 0-7-6-13-13-13z m51 231c-21 0-38 17-38 38 0 21 17 38 38 38 22 0 39-17 39-38 0-21-17-38-39-38z m0 51c-7 0-12-6-12-13 0-7 5-13 12-13 7 0 13 6 13 13 0 7-6 13-13 13z"/>
<glyph glyph-name="pushpin" unicode="&#57378;" d="M461 338l-136 136c-5 4-11 7-18 7-7 0-13-3-18-7l-7-8c-8-7-13-20-13-31l0-25c0-4-3-11-5-13l-72-72c-3-2-9-5-13-5l-25 0c-11 0-24-5-31-13l-8-7c-10-10-10-27 0-37l40-39-127-165c-4-5-3-12 1-17 3-2 6-4 9-4 3 0 6 1 8 3l165 127 40-40c5-5 11-7 18-7 7 0 13 2 18 7l7 8c8 7 13 20 13 30l0 26c0 4 3 10 6 13l71 71c3 3 9 6 13 6l25 0c11 0 24 5 31 12l8 8c5 5 7 11 7 18 0 7-2 13-7 18z m-353-217l65 84 20-19z m327 191c-2-2-9-5-13-5l-25 0c-11 0-24-5-31-13l-72-71c-7-8-12-21-12-31l0-26c0-3-3-10-6-12l-7-8c0 0 0 0 0 0l0 0-136 136 8 7c2 3 9 5 13 5l25 0c11 0 24 6 31 13l72 72c7 7 12 20 12 31l0 25c0 4 3 10 6 13l7 7 136-135z"/>
<glyph glyph-name="question-circle" unicode="&#57379;" d="M415 415c-46 46-107 71-172 71-65 0-126-25-172-71-46-46-71-107-71-172 0-65 25-126 71-172 46-46 107-71 172-71 65 0 126 25 172 71 46 46 71 107 71 172 0 65-25 126-71 172z m-172-389c-120 0-217 97-217 217 0 120 97 218 217 218 120 0 218-98 218-218 0-120-98-217-218-217z m0 102c-7 0-13 6-13 13l0 51c0 7 6 13 13 13 50 0 90 40 90 89 0 50-40 90-90 90-49 0-89-40-89-90 0-7-6-12-13-12-7 0-13 5-13 12 0 64 52 116 115 116 64 0 115-52 115-116 0-59-44-108-102-114l0-39c0-7-6-13-13-13z m0-77c-7 0-13 6-13 13l0 26c0 7 6 12 13 12 7 0 13-5 13-12l0-26c0-7-6-13-13-13z"/>
<glyph glyph-name="redo" unicode="&#57380;" d="M64 397c41 41 95 64 154 64 58 0 112-23 153-64 42-41 64-96 64-154l0-33 55 55c5 5 13 5 18 0 5-5 5-13 0-18l-77-77c-2-2-5-4-9-4-3 0-6 2-9 4l-76 77c-5 5-5 13 0 18 5 5 13 5 18 0l55-55 0 33c0 106-87 192-192 192-106 0-192-86-192-192 0-106 86-192 192-192 7 0 12-6 12-13 0-7-5-12-12-12-59 0-113 22-154 63-41 41-64 96-64 154 0 58 23 113 64 154z"/>
<glyph glyph-name="rocket" unicode="&#57381;" d="M346 282c-36 0-64 28-64 64 0 35 28 64 64 64 35 0 64-29 64-64 0-36-29-64-64-64z m0 102c-22 0-39-17-39-38 0-22 17-39 39-39 21 0 38 17 38 39 0 21-17 38-38 38z m-333-384c-4 0-7 1-9 4-4 3-5 8-3 13 39 108 81 163 123 163 14 0 27-6 39-17 18-19 19-38 16-50-8-38-63-76-162-112-1-1-3-1-4-1z m111 155c-13 0-28-11-43-32-16-21-31-50-46-88 34 14 62 28 82 42 27 18 35 33 37 42 2 9-1 17-9 26-7 6-14 10-21 10z m375 357c-66 0-125-11-176-33-41-19-77-45-105-77-6-6-11-12-15-18-22-2-45-10-67-26-19-14-39-32-57-56-32-39-51-77-52-79-3-5-1-12 4-16 2-1 5-2 7-2 4 0 7 1 9 4 1 0 13 12 34 23 17 10 43 22 75 24 9-21 32-46 43-57 11-11 36-34 57-43-2-32-14-58-24-75-11-21-23-33-23-34-5-4-5-11-2-16 3-3 7-5 11-5 2 0 3 0 5 1 2 1 40 20 79 52 24 18 42 38 56 57 16 22 24 45 26 67 6 4 12 9 18 15 32 28 58 64 76 105 23 51 34 110 34 176l0 13-13 0z m-419-251c24 35 61 79 103 93-16-29-25-56-28-73-30-2-55-10-75-20z m181-181c10 20 18 45 20 75 17 3 44 12 73 28-14-42-58-79-93-103z m124 157c-53-47-108-58-116-58 0 0-5 0-20 10-9 7-21 17-32 28-11 11-21 22-28 32-10 14-10 20-10 20 0 8 11 63 58 116 56 64 142 99 249 101-2-107-37-193-101-249z"/>
<glyph glyph-name="sad" unicode="&#57382;" d="M243 0c-65 0-126 25-172 71-46 46-71 107-71 172 0 65 25 126 71 172 46 46 107 71 172 71 65 0 126-25 172-71 46-46 71-107 71-172 0-65-25-126-71-172-46-46-107-71-172-71z m0 461c-120 0-217-98-217-218 0-120 97-217 217-217 120 0 218 97 218 217 0 120-98 218-218 218z m-77-154c-21 0-38 17-38 39 0 21 17 38 38 38 22 0 39-17 39-38 0-22-17-39-39-39z m0 51c-7 0-12-5-12-12 0-7 5-13 12-13 7 0 13 6 13 13 0 7-6 12-13 12z m154-51c-21 0-38 17-38 39 0 21 17 38 38 38 21 0 38-17 38-38 0-22-17-39-38-39z m0 51c-7 0-13-5-13-12 0-7 6-13 13-13 7 0 13 6 13 13 0 7-6 12-13 12z m-179-230c-3 0-6 1-8 3-6 4-7 12-2 17 12 18 29 32 48 41 20 11 42 16 64 16 23 0 44-5 64-16 19-9 36-23 49-41 4-5 3-13-3-17-5-5-13-4-18 2-22 29-55 46-92 46-36 0-70-17-92-46-2-3-6-5-10-5z"/>
<glyph glyph-name="strikethrough" unicode="&#57383;" d="M422 461l-358 0c-7 0-13-6-13-13 0-7 6-13 13-13l166 0 0-115c0-7 6-13 13-13 7 0 13 6 13 13l0 115 166 0c7 0 13 6 13 13 0 7-6 13-13 13z m-179-410c-7 0-13 6-13 13l0 102c0 7 6 13 13 13 7 0 13-6 13-13l0-102c0-7-6-13-13-13z m231 154l-461 0c-7 0-13 6-13 13l0 51c0 7 6 13 13 13l461 0c7 0 12-6 12-13l0-51c0-7-5-13-12-13z m-448 25l435 0 0 26-435 0z"/>
<glyph glyph-name="star-half" unicode="&#57384;" d="M397 26c-2 0-4 0-6 1l-77 42c-6 3-9 11-5 17 3 7 11 9 17 6l54-30-4 25c-2 7 3 14 10 15 7 1 14-3 15-10l8-52c1-4-1-9-5-12-2-2-5-2-7-2z m-17 102c-6 0-12 4-13 11l-8 51c-1 4 0 8 3 11l26 26c5 5 13 5 18 0 5-5 5-13 0-18l-21-21 7-45c2-7-3-14-10-15-1 0-2 0-2 0z m68 128c-3 0-7 1-9 4-5 5-5 13 0 18l8 8-52 9c-7 1-12 7-11 14 1 7 8 12 15 11l77-13c4-1 8-4 10-9 1-4 0-9-3-13l-26-25c-2-3-6-4-9-4z m-102 47c-1 0-2 0-2 0l-26 4c-4 1-8 4-9 7l-26 51c-3 7-1 14 6 18 6 3 14 0 17-6l23-45 19-4c7-1 11-7 10-14-1-7-6-11-12-11z m-231-277c-2 0-5 0-7 2-4 3-6 8-5 13l24 147-98 97c-3 4-4 9-3 13 2 5 6 8 10 9l147 25 62 122c2 4 6 7 11 7 5 0 9-3 11-7l13-26c3-6 1-14-5-17-7-3-14-1-18 6l-1 2-53-105c-1-3-5-6-9-7l-129-21 85-85c3-3 4-7 3-11l-21-128 118 64c4 3 8 3 12 0l13-7c6-3 8-11 5-17-3-6-11-8-17-5l-7 4-135-74c-2-1-4-1-6-1z"/>
<glyph glyph-name="star-empty" unicode="&#57385;" d="M141 299c-6 0-12 4-13 10-1 7 4 14 11 15l44 8 10 19c3 7 11 9 18 6 6-3 8-11 5-17l-13-26c-1-3-5-6-9-7l-51-8c-1 0-2 0-2 0z m-77-43c-3 0-7 1-9 4l-26 25c-3 4-4 9-3 13 2 5 6 8 10 9l51 9c7 1 14-4 15-11 1-7-3-14-10-15l-27-4 8-8c5-5 5-13 0-18-2-3-6-4-9-4z m316-128c-6 0-12 4-13 11l-8 51c-1 4 0 8 3 11l26 26c5 5 13 5 18 0 5-5 5-13 0-18l-21-21 7-45c2-7-3-14-10-15-1 0-2 0-2 0z m17-102c-2 0-4 0-6 1l-77 42c-6 3-9 11-5 17 3 7 11 9 17 6l54-30-4 25c-2 7 3 14 10 15 7 1 14-3 15-10l8-52c1-4-1-9-5-12-2-2-5-2-7-2z m-260 128c-1 0-2 0-3 0-7 1-11 8-10 14l3 20-21 21c-5 5-5 13 0 18 5 5 13 5 18 0l26-26c3-3 4-7 3-11l-4-26c-1-6-6-10-12-10z m-22-128c-2 0-5 0-7 2-4 3-6 8-5 13l12 76c2 7 8 12 15 11 7-1 12-8 11-15l-9-51 28 16c6 3 14 1 18-6 3-6 1-13-5-17l-52-28c-2-1-4-1-6-1z m103 55c-5 0-9 3-12 7-3 6-1 14 5 17l39 21c4 3 8 3 12 0l13-7c6-3 8-11 5-17-3-6-11-8-17-5l-7 4-32-18c-2-1-4-2-6-2z m230 175c-3 0-7 1-9 4-5 5-5 13 0 18l8 8-52 9c-7 1-12 7-11 14 1 7 8 12 15 11l77-13c4-1 8-4 10-9 1-4 0-9-3-13l-26-25c-2-3-6-4-9-4z m-102 47c-1 0-2 0-2 0l-26 4c-4 1-8 4-9 7l-26 51c-3 7-1 14 6 18 6 3 14 0 17-6l23-45 19-4c7-1 11-7 10-14-1-7-6-11-12-11z m-116 81c-2 0-3 0-5 1-7 4-9 11-6 18l26 51c2 4 6 7 11 7 5 0 9-3 11-7l13-26c3-6 1-14-5-17-7-3-14-1-18 6l-1 2-14-28c-2-4-7-7-12-7z"/>
<glyph glyph-name="star" unicode="&#57386;" d="M397 26c-2 0-4 0-6 1l-135 74-135-74c-4-2-9-2-13 1-4 3-6 8-5 13l24 147-98 97c-3 4-4 9-3 13 2 5 6 8 10 9l147 25 62 122c2 4 6 7 11 7 5 0 9-3 11-7l62-122 147-25c4-1 8-4 10-9 1-4 0-9-3-13l-98-97 24-147c1-5-1-10-5-13-2-2-5-2-7-2z m-141 102c2 0 4-1 6-2l118-64-21 128c-1 4 0 8 3 11l85 85-129 21c-4 1-8 4-9 7l-53 105-53-105c-1-3-5-6-9-7l-129-21 85-85c3-3 4-7 3-11l-21-128 118 64c2 1 4 2 6 2z"/>
<glyph glyph-name="spell-check" unicode="&#57387;" d="M115 154c-7 0-13-6-13-13l0 0c-10 8-24 13-38 13-35 0-64-29-64-64 0-36 29-64 64-64 14 0 28 4 38 12l0 0c0-7 6-12 13-12 7 0 13 5 13 12l0 103c0 7-6 13-13 13z m-51-103c-21 0-38 17-38 39 0 21 17 38 38 38 21 0 38-17 38-38 0-22-17-39-38-39z m154 103c-15 0-28-5-39-13l0 102c0 7-6 13-13 13-7 0-12-6-12-13l0-205c0-7 5-12 12-12 7 0 13 5 13 12l0 0c11-8 24-12 39-12 35 0 64 28 64 64 0 35-29 64-64 64z m0-103c-22 0-39 17-39 39 0 21 17 38 39 38 21 0 38-17 38-38 0-22-17-39-38-39z m153-25c-35 0-64 28-64 64 0 35 29 64 64 64 11 0 23-3 32-9 6-4 8-11 5-17-4-7-11-9-18-5-5 3-12 5-19 5-21 0-38-17-38-38 0-22 17-39 38-39 7 0 14 2 19 5 7 4 14 2 18-4 3-6 1-14-5-18-9-5-21-8-32-8z m-77 217c-3 0-6 1-9 4l-76 77c-5 5-5 13 0 18 5 5 13 5 18 0l67-68 171 170c5 5 13 5 18 0 5-5 5-13 0-18l-180-179c-2-3-5-4-9-4z"/>
<glyph glyph-name="sort-amount-asc" unicode="&#57388;" d="M227 137c-5 5-13 5-18 0l-81-80 0 442c0 7-6 13-13 13-7 0-13-6-13-13l0-442-80 80c-5 5-13 5-18 0-5-5-5-13 0-18l102-102c3-3 6-4 9-4 4 0 7 1 9 4l103 102c5 5 5 13 0 18z m119 247l-52 0c-7 0-12 6-12 13l0 51c0 7 5 13 12 13l52 0c7 0 12-6 12-13l0-51c0-7-5-13-12-13z m-39 26l26 0 0 25-26 0z m90-128l-103 0c-7 0-12 5-12 12l0 52c0 7 5 12 12 12l103 0c7 0 13-5 13-12l0-52c0-7-6-12-13-12z m-90 25l77 0 0 26-77 0z m141-128l-154 0c-7 0-12 6-12 13l0 51c0 7 5 13 12 13l154 0c7 0 13-6 13-13l0-51c0-7-6-13-13-13z m-141 26l128 0 0 25-128 0z m192-128l-205 0c-7 0-12 6-12 13l0 51c0 7 5 13 12 13l205 0c7 0 13-6 13-13l0-51c0-7-6-13-13-13z m-192 25l179 0 0 26-179 0z"/>
<glyph glyph-name="sort-alpha-asc" unicode="&#57389;" d="M227 137c-5 5-13 5-18 0l-81-80 0 442c0 7-6 13-13 13-7 0-13-6-13-13l0-442-80 80c-5 5-13 5-18 0-5-5-5-13 0-18l102-102c3-3 6-4 9-4 4 0 7 1 9 4l103 102c5 5 5 13 0 18z m284 188l-77 179c-2 5-6 8-12 8-5 0-9-3-11-8l-77-179c-3-6 0-14 7-17 6-3 14 0 16 7l30 69 71 0 29-69c3-5 7-8 12-8 2 0 4 1 5 1 7 3 10 11 7 17z m-113 85l24 57 25-57z m76-410l-103 0c-4 0-9 2-11 6-2 4-2 9 0 13l92 160-81 0c-7 0-13 6-13 13 0 7 6 13 13 13l103 0c4 0 8-3 11-7 2-4 2-8 0-12l-92-160 81 0c7 0 12-6 12-13 0-7-5-13-12-13z"/>
<glyph glyph-name="shirt" unicode="&#57390;" d="M346 26l-205 0c-21 0-39 17-39 38l0 238-60-20c-6-2-14 2-16 8l-25 77c-2 6 0 13 6 16l154 76c4 2 8 2 12 0 4-2 6-7 6-11 0-35 29-64 64-64 35 0 64 29 64 64 0 4 3 9 6 11 4 2 9 2 13 0l153-76c6-3 9-10 7-16l-26-77c-2-6-9-10-16-8l-60 20 0-238c0-21-17-38-38-38z m-231 307c3 0 5-1 8-3 3-2 5-6 5-10l0-256c0-7 6-13 13-13l205 0c7 0 12 6 12 13l0 256c0 4 2 8 6 10 3 3 7 3 11 2l65-21 18 54-127 63c-9-40-45-70-88-70-42 0-78 30-87 70l-128-63 19-54 64 21c2 1 3 1 4 1z"/>
<glyph glyph-name="select" unicode="&#57391;" d="M141 128l-103 0c-21 0-38 17-38 38l0 308c0 21 17 38 38 38l359 0c21 0 38-17 38-38l0-180c0-7-6-12-13-12-7 0-12 5-12 12l0 180c0 7-6 12-13 12l-359 0c-7 0-12-5-12-12l0-308c0-7 5-12 12-12l103 0c7 0 13-6 13-13 0-7-6-13-13-13z m192-128c-5 0-10 3-12 8l-44 109-75-87c-4-4-10-5-15-4-4 2-8 7-8 12l0 384c0 5 3 10 8 12 4 2 10 1 14-2l281-256c4-4 5-9 4-14-2-5-7-8-12-8l-109 0 44-111c2-6-1-14-7-17l-64-25c-2-1-4-1-5-1z m-51 154c0 0 1 0 2-1 4 0 8-3 9-7l47-117 40 17-46 116c-2 4-1 8 1 12 2 3 6 5 11 5l95 0-236 214 0-321 67 77c2 3 6 5 10 5z"/>
<glyph glyph-name="screen" unicode="&#57392;" d="M448 461l-410 0c-21 0-38-17-38-39l0-256c0-21 17-38 38-38l192 0 0-51-89 0c-7 0-13-6-13-13 0-7 6-13 13-13l205 0c7 0 12 6 12 13 0 7-5 13-12 13l-90 0 0 51 192 0c21 0 38 17 38 38l0 256c0 22-17 39-38 39z m13-295c0-7-6-12-13-12l-410 0c-7 0-12 5-12 12l0 256c0 7 5 13 12 13l410 0c7 0 13-6 13-13z"/>
<glyph glyph-name="sun" unicode="&#57393;" d="M243 128c-63 0-115 52-115 115 0 64 52 115 115 115 64 0 115-51 115-115 0-63-51-115-115-115z m0 205c-49 0-89-40-89-90 0-49 40-89 89-89 50 0 90 40 90 89 0 50-40 90-90 90z m0 51c-7 0-13 6-13 13l0 77c0 7 6 12 13 12 7 0 13-5 13-12l0-77c0-7-6-13-13-13z m0-384c-7 0-13 6-13 13l0 77c0 7 6 12 13 12 7 0 13-5 13-12l0-77c0-7-6-13-13-13z m-153 230l-77 0c-7 0-13 6-13 13 0 7 6 13 13 13l77 0c7 0 12-6 12-13 0-7-5-13-12-13z m384 0l-77 0c-7 0-13 6-13 13 0 7 6 13 13 13l77 0c7 0 12-6 12-13 0-7-5-13-12-13z m-359 128c-3 0-6 2-9 4l-51 51c-5 5-5 13 0 18 5 5 13 5 18 0l51-51c5-5 5-13 0-18-2-2-6-4-9-4z m-51-307c-3 0-7 1-9 4-5 5-5 13 0 18l51 51c5 5 13 5 18 0 5-5 5-13 0-18l-51-51c-2-3-6-4-9-4z m358 0c-3 0-6 1-9 4l-51 51c-5 5-5 13 0 18 5 5 13 5 18 0l51-51c5-5 5-13 0-18-2-3-5-4-9-4z m-51 307c-3 0-6 2-9 4-5 5-5 13 0 18l51 51c5 5 13 5 18 0 5-5 5-13 0-18l-51-51c-2-2-6-4-9-4z"/>
<glyph glyph-name="sync" unicode="&#57394;" d="M508 291c-5 5-13 5-18 0l-29-30c-2 53-23 102-60 140-39 38-90 60-145 60-76 0-146-42-181-109-3-7-1-14 5-18 6-3 14-1 17 6 32 59 92 95 159 95 97 0 176-77 179-174l-29 30c-5 5-13 5-18 0-5-5-5-13 0-18l51-52c2-2 6-3 9-3 3 0 7 1 9 3l51 52c5 5 5 13 0 18z m-76-113c-6 3-14 1-17-6-32-59-92-95-159-95-97 0-176 77-179 174l29-30c3-2 6-3 9-3 3 0 7 1 9 3 5 5 5 13 0 18l-51 52c-5 5-13 5-18 0l-51-52c-5-5-5-13 0-18 5-5 13-5 18 0l29 30c2-53 23-102 60-140 39-39 90-60 145-60 76 0 146 42 181 109 4 7 1 14-5 18z"/>
<glyph glyph-name="trash" unicode="&#57395;" d="M397 461l-90 0 0 13c0 21-17 38-38 38l-51 0c-22 0-39-17-39-38l0-13-89 0c-22 0-39-17-39-39l0-25c0-17 11-31 26-36l0-323c0-21 17-38 38-38l256 0c21 0 39 17 39 38l0 323c15 5 25 19 25 36l0 25c0 22-17 39-38 39z m-192 13c0 7 6 12 13 12l51 0c7 0 13-5 13-12l0-13-77 0z m166-448l-256 0c-7 0-13 5-13 12l0 320 282 0 0-320c0-7-6-12-13-12z m39 371c0-7-6-13-13-13l-307 0c-7 0-13 6-13 13l0 25c0 7 6 13 13 13l307 0c7 0 13-6 13-13z m-90-64c-7 0-13-6-13-13l0-256c0-7 6-13 13-13 7 0 13 6 13 13l0 256c0 7-6 13-13 13z m-77 0c-7 0-13-6-13-13l0-256c0-7 6-13 13-13 7 0 13 6 13 13l0 256c0 7-6 13-13 13z m-77 0c-7 0-12-6-12-13l0-256c0-7 5-13 12-13 7 0 13 6 13 13l0 256c0 7-6 13-13 13z"/>
<glyph glyph-name="wheelchair" unicode="&#57396;" d="M457 175c-5 5-13 5-18 0l-17-16-70 68c0 0 0 0 0 0 0 0 0 0 0 0 0 1-1 1-1 1 0 0 0 0 0 0 0 0-1 0-1 0 0 1 0 1 0 1 0 0-1 0-1 0 0 0 0 0 0 0-1 0-1 0-1 1 0 0 0 0-1 0 0 0 0 0 0 0 0 0-1 0-1 0 0 0 0 0 0 0-1 0-1 0-1 0 0 0 0 0-1 0 0 0 0 0 0 0 0 0-1 0-1 0 0 0 0 0 0 0-1 0-1 0-1 0 0 0 0 0-1 0 0 0 0 0 0 0 0 0 0 0-1 0l-101-24c-2-1-5-1-6 1-2 1-3 3-3 6l0 43 90 0c7 0 13 6 13 13 0 7-6 13-13 13l-90 0 0 78c5-1 9-2 13-2 35 0 64 29 64 64 0 36-29 64-64 64-35 0-64-28-64-64 0-20 10-39 26-51l0-158c0-11 4-20 12-27 6-4 13-6 20-6 3 0 6 0 8 1l95 23 73-72c3-3 6-4 9-4 4 0 7 1 9 4l26 25c5 5 5 13 0 18z m-214 286c21 0 39-17 39-39 0-21-18-38-39-38-21 0-38 17-38 38 0 22 17 39 38 39z m-51-461c-92 0-166 75-166 166 0 40 14 78 39 108 26 30 61 50 99 57 7 1 14-4 15-11 1-7-3-14-10-15-68-11-118-70-118-139 0-77 63-140 141-140 69 0 127 49 139 117 1 7 8 12 15 10 7-1 11-7 10-14-6-39-26-74-56-99-30-26-68-40-108-40z"/>
<glyph glyph-name="train" unicode="&#57397;" d="M371 128l-256 0c-35 0-64 29-64 64l0 256c0 35 29 64 64 64l256 0c35 0 64-29 64-64l0-256c0-35-29-64-64-64z m-256 358c-21 0-38-17-38-38l0-256c0-21 17-38 38-38l256 0c21 0 39 17 39 38l0 256c0 21-18 38-39 38z m370-467l-51 102c-3 6-11 9-17 6-7-3-9-11-6-18l3-7-342 0 3 7c4 7 1 14-5 18-7 3-14 0-17-6l-52-102c-3-7 0-14 6-18 2-1 4-1 6-1 4 0 9 3 11 7l9 19 420 0 9-19c2-4 7-7 12-7 2 0 3 0 5 1 7 4 9 11 6 18z m-439 32l13 26 368 0 13-26z m95 128c-21 0-39 17-39 39 0 21 18 38 39 38 21 0 38-17 38-38 0-22-17-39-38-39z m0 51c-7 0-13-5-13-12 0-7 6-13 13-13 7 0 13 6 13 13 0 7-6 12-13 12z m205-51c-22 0-39 17-39 39 0 21 17 38 39 38 21 0 38-17 38-38 0-22-17-39-38-39z m0 51c-7 0-13-5-13-12 0-7 6-13 13-13 7 0 12 6 12 13 0 7-5 12-12 12z m-26 205l-154 0c-7 0-12 6-12 13 0 7 5 13 12 13l154 0c7 0 13-6 13-13 0-7-6-13-13-13z m51-25l-256 0c-7 0-13-6-13-13l0-103c0-7 6-12 13-12l256 0c7 0 13 5 13 12l0 103c0 7-6 13-13 13z m-243-26l102 0 0-77-102 0z m230-77l-102 0 0 77 102 0z"/>
<glyph glyph-name="tablet" unicode="&#57398;" d="M422 0l-332 0c-22 0-39 17-39 38l0 436c0 21 17 38 39 38l332 0c22 0 39-17 39-38l0-436c0-21-17-38-39-38z m-332 486c-7 0-13-5-13-12l0-436c0-7 6-12 13-12l332 0c7 0 13 5 13 12l0 436c0 7-6 12-13 12z m179-435l-26 0c-7 0-13 6-13 13 0 7 6 13 13 13l26 0c7 0 13-6 13-13 0-7-6-13-13-13z m128 51l-282 0c-7 0-13 6-13 13l0 333c0 7 6 13 13 13l282 0c7 0 13-6 13-13l0-333c0-7-6-13-13-13z m-269 26l256 0 0 307-256 0z"/>
<glyph glyph-name="underline" unicode="&#57399;" d="M371 51l-230 0c-7 0-13 6-13 13 0 7 6 13 13 13l230 0c7 0 13-6 13-13 0-7-6-13-13-13z m-115 77c-71 0-128 57-128 128l0 192c0 7 6 13 13 13 7 0 13-6 13-13l0-192c0-56 46-102 102-102 56 0 102 46 102 102l0 192c0 7 6 13 13 13 7 0 13-6 13-13l0-192c0-71-57-128-128-128z"/>
<glyph glyph-name="undo" unicode="&#57400;" d="M448 397c-41 41-95 64-154 64-58 0-112-23-153-64-42-41-64-96-64-154l0-33-55 55c-5 5-13 5-18 0-5-5-5-13 0-18l77-77c2-2 5-4 9-4 3 0 6 2 9 4l76 77c5 5 5 13 0 18-5 5-13 5-18 0l-55-55 0 33c0 106 87 192 192 192 106 0 192-86 192-192 0-106-86-192-192-192-7 0-12-6-12-13 0-7 5-12 12-12 59 0 113 22 154 63 41 41 64 96 64 154 0 58-23 113-64 154z"/>
<glyph glyph-name="tag" unicode="&#57401;" d="M192 23c-10 0-20 4-27 12l-130 130c-8 7-12 17-12 27 0 10 4 20 12 27l219 220c13 12 36 22 53 22l115 0c22 0 39-17 39-39l0-115c0-17-10-40-22-53l-220-219c-7-8-17-12-27-12z m115 412c-10 0-27-7-34-14l-220-220c-3-2-4-6-4-9 0-3 1-7 4-9l130-130c2-3 6-4 9-4 3 0 7 1 9 4l220 220c7 7 14 24 14 34l0 115c0 7-5 13-13 13z m64-102c-21 0-38 17-38 38 0 21 17 39 38 39 21 0 39-18 39-39 0-21-18-38-39-38z m0 51c-7 0-13-6-13-13 0-7 6-13 13-13 7 0 13 6 13 13 0 7-6 13-13 13z"/>
<glyph glyph-name="text-align-center" unicode="&#57402;" d="M448 384l-384 0c-7 0-13 6-13 13 0 7 6 13 13 13l384 0c7 0 13-6 13-13 0-7-6-13-13-13z m-51-77l-282 0c-7 0-13 6-13 13 0 7 6 13 13 13l282 0c7 0 13-6 13-13 0-7-6-13-13-13z m51-77l-384 0c-7 0-13 6-13 13 0 7 6 13 13 13l384 0c7 0 13-6 13-13 0-7-6-13-13-13z m-51-76l-282 0c-7 0-13 5-13 12 0 7 6 13 13 13l282 0c7 0 13-6 13-13 0-7-6-12-13-12z m51-77l-384 0c-7 0-13 6-13 13 0 7 6 12 13 12l384 0c7 0 13-5 13-12 0-7-6-13-13-13z"/>
<glyph glyph-name="unlink" unicode="&#57403;" d="M346 218c-4 0-7 1-9 3-5 5-5 13 0 18l78 79c13 13 20 30 20 49 0 18-7 35-20 48-27 27-70 27-97 0l-79-78c-5-5-13-5-18 0-5 5-5 13 0 18l79 78c37 37 96 37 133 0 18-18 28-41 28-67 0-25-10-48-28-66l-78-79c-3-2-6-3-9-3z m-226-192c-25 0-49 9-67 27-37 37-37 97 0 133l79 79c5 5 13 5 18 0 5-5 5-13 0-18l-79-79c-26-26-26-70 0-97 13-13 31-20 49-20 18 0 35 7 48 20l79 79c5 5 13 5 18 0 5-5 5-13 0-18l-79-79c-17-18-41-27-66-27z m21 307c-3 0-7 1-9 4l-51 51c-5 5-5 13 0 18 5 5 13 5 18 0l51-51c5-5 5-13 0-18-3-3-6-4-9-4z m51 25c-7 0-13 6-13 13l0 77c0 7 6 13 13 13 7 0 13-6 13-13l0-77c0-7-6-13-13-13z m-77-76l-77 0c-7 0-12 5-12 12 0 7 5 13 12 13l77 0c7 0 13-6 13-13 0-7-6-12-13-12z m282-205c-3 0-7 1-9 4l-51 51c-5 5-5 13 0 18 5 5 13 5 18 0l51-51c5-5 5-13 0-18-3-3-6-4-9-4z m51 102l-77 0c-7 0-13 6-13 13 0 7 6 13 13 13l77 0c7 0 13-6 13-13 0-7-6-13-13-13z m-154-153c-7 0-12 5-12 12l0 77c0 7 5 13 12 13 7 0 13-6 13-13l0-77c0-7-6-12-13-12z"/>
<glyph glyph-name="upload" unicode="&#57404;" d="M448 26l-410 0c-21 0-38 17-38 38l0 51c0 7 6 13 13 13 7 0 13-6 13-13l0-51c0-7 5-13 12-13l410 0c7 0 13 6 13 13l0 51c0 7 6 13 13 13 7 0 12-6 12-13l0-51c0-21-17-38-38-38z m-68 265l-128 128c-5 5-13 5-18 0l-128-128c-5-5-5-13 0-18 5-5 13-5 18 0l106 106 0-264c0-7 6-13 13-13 7 0 13 6 13 13l0 264 106-106c3-3 6-4 9-4 3 0 7 1 9 4 5 5 5 13 0 18z"/>
<glyph glyph-name="text-align-justify" unicode="&#57405;" d="M448 384l-384 0c-7 0-13 6-13 13 0 7 6 13 13 13l384 0c7 0 13-6 13-13 0-7-6-13-13-13z m0-77l-384 0c-7 0-13 6-13 13 0 7 6 13 13 13l384 0c7 0 13-6 13-13 0-7-6-13-13-13z m0-77l-384 0c-7 0-13 6-13 13 0 7 6 13 13 13l384 0c7 0 13-6 13-13 0-7-6-13-13-13z m0-76l-384 0c-7 0-13 5-13 12 0 7 6 13 13 13l384 0c7 0 13-6 13-13 0-7-6-12-13-12z m0-77l-384 0c-7 0-13 6-13 13 0 7 6 12 13 12l384 0c7 0 13-5 13-12 0-7-6-13-13-13z"/>
<glyph glyph-name="text-align-left" unicode="&#57406;" d="M448 384l-384 0c-7 0-13 6-13 13 0 7 6 13 13 13l384 0c7 0 13-6 13-13 0-7-6-13-13-13z m-102-77l-282 0c-7 0-13 6-13 13 0 7 6 13 13 13l282 0c7 0 12-6 12-13 0-7-5-13-12-13z m102-77l-384 0c-7 0-13 6-13 13 0 7 6 13 13 13l384 0c7 0 13-6 13-13 0-7-6-13-13-13z m-102-76l-282 0c-7 0-13 5-13 12 0 7 6 13 13 13l282 0c7 0 12-6 12-13 0-7-5-12-12-12z m102-77l-384 0c-7 0-13 6-13 13 0 7 6 12 13 12l384 0c7 0 13-5 13-12 0-7-6-13-13-13z"/>
</font>
</defs>
</svg>
